[ Сегодня идет свободное скачивание без начисления Download ]


Статистика раздачи
Нет
 
   
 
Top  
 
 
-С. Дарко / S. Darko (2009) BDRemux- Русское название: С. Дарко
Оригинальное название: S. Darko
Страна: США
Студия: Silver Nitrate, Newmarket Capital Group
Год выпуска: 2009
Жанр: Фантастика, Триллер, Детектив-Описание фильма:
Действие разворачивается спустя семь лет после событий первого фильма, вокруг вымахавшей восемнадцатилетней Саманты Дарко и ее лучшей подруги Кори.
Отправившихся в путешествие до Лос-Анджелеса подростков начинает посещать странное видение.-Режиссер: Крис Фишер / Chris Fisher
Актеры: Дэйви Чейз, Бриана Эвиган, Джеймс Лэфферти, Эд Вествик, Уолтер Платц, Джон Хоукс, Брэт Робертс, Джексон Рэтбоун, Элизабет Беркли, Барбара Тарбак-Продолжительность: 01:43:09
Перевод: Профессиональный (двухголосый закадровый) + Одноголосый закадровый
Оригинальная аудиодорожка: английская
Cубтитры: русские, английские
Формат субтитров: softsub (SRT)- -
Рейтинг R - Детям до 17 лет обязательно присутствие родителей-Видеокодек: MPEG-4 AVC/H.264
Битрейт видео: ~34000 Кbps
Размер кадра: 1920x1080p (16:9)
Качество видео: BDRemux 1080p-Аудио 1: Русский AC3; 192 Kbps; CBR; 2 ch; 48 khz | Двухголосый
Аудио 2: Русский AC3; 192 Kbps; CBR; 2 ch; 48 khz | Одноголосый
Аудио 3: Английский DTS HD MA; 3523 Kbps; VBR; 6 ch; 48 khz; 24 bit | (DTS Core: 5.1 / 48 kHz / 1509 kbps / 24-bit)
Аудио 4: Английский AC3; 640 Kbps; CBR; 2 ch; 48 khz | Commentary: Крис Фишер и Съемочная группа
-

MediaInfo:

General
Complete name : O:\С. Дарко.2009.P.1080p.BluRay.Remux.mkv
Format : Matroska
File size : 27.7 GiB
Duration : 1h 43mn
Overall bit rate : 38.4 Mbps
Encoded date : UTC 2013-03-16 17:29:36
Writing application : mkvmerge v6.1.0 ('Old Devil') built on Mar 2 2013 14:32:37
Writing library : libebml v1.3.0 + libmatroska v1.4.0
Video
ID : 1
Format : AVC
Format/Info : Advanced Video Codec
Format profile : High@L4.1
Format settings, CABAC : Yes
Format settings, ReFrames : 4 frames
Muxing mode : Container profile=Unknown@4.1
Codec ID : V_MPEG4/ISO/AVC
Duration : 1h 43mn
Width : 1 920 pixels
Height : 1 080 pixels
Display aspect ratio : 16:9
Frame rate : 23.976 fps
Resolution : 8 bits
Colorimetry : 4:2:0
Scan type : Progressive
Title : 34000 kbps / 1080p / 23,976 fps / 16:9 / High Profile 4.1
Color primaries : BT.709-5, BT.1361, IEC 61966-2-4, SMPTE RP177
Transfer characteristics : BT.709-5, BT.1361
Matrix coefficients : BT.709-5, BT.1361, IEC 61966-2-4 709, SMPTE RP177
Audio #1
ID : 2
Format : AC-3
Format/Info : Audio Coding 3
Codec ID : A_AC3
Duration : 1h 43mn
Bit rate mode : Constant
Bit rate : 192 Kbps
Channel(s) : 2 channels
Channel positions : L R
Sampling rate : 48.0 KHz
Stream size : 142 MiB (0%)
Title : P, DVO
Language : Russian
Audio #2
ID : 3
Format : AC-3
Format/Info : Audio Coding 3
Codec ID : A_AC3
Duration : 1h 43mn
Bit rate mode : Constant
Bit rate : 192 Kbps
Channel(s) : 2 channels
Channel positions : L R
Sampling rate : 48.0 KHz
Stream size : 142 MiB (0%)
Title : VO
Language : Russian
Audio #3
ID : 4
Format : DTS
Format/Info : Digital Theater Systems
Format profile : MA
Codec ID : A_DTS
Duration : 1h 43mn
Bit rate mode : Variable
Channel(s) : 6 channels
Channel positions : Front: L C R, Surround: L R, LFE
Sampling rate : 48.0 KHz
Resolution : 24 bits
Title : 5.1 / 48 kHz / 3523 kbps / 24-bit (DTS Core: 5.1 / 48 kHz / 1509 kbps / 24-bit)
Audio #4
ID : 5
Format : AC-3
Format/Info : Audio Coding 3
Codec ID : A_AC3
Duration : 1h 43mn
Bit rate mode : Constant
Bit rate : 640 Kbps
Channel(s) : 2 channels
Channel positions : L R
Sampling rate : 48.0 KHz
Stream size : 472 MiB (2%)
Title : commentary by Chris Fisher and the crew
Text #1
ID : 6
Format : UTF-8
Codec ID : S_TEXT/UTF8
Codec ID/Info : UTF-8 Plain Text
Text #2
ID : 7
Format : UTF-8
Codec ID : S_TEXT/UTF8
Codec ID/Info : UTF-8 Plain Text
Language : Russian
Menu
00:00:00.000 : en:Nightmares Rule / Main Title
00:02:06.501 : en:Car Trouble
00:06:35.186 : en:A Helping Hand
00:11:48.582 : en:The Man On The Windmill
00:14:10.808 : en:Message In A Bottle
00:17:39.600 : en:All The Time In The World
00:22:03.947 : en:The Princess Needs Help
00:24:20.542 : en:Getting Wasted
00:27:45.955 : en:To Be Somebody Else
00:32:02.587 : en:Why Me?
00:34:26.105 : en:Bandits On The Run
00:35:34.924 : en:Forces Are At Work
00:38:32.893 : en:The Mask
00:41:40.664 : en:Better Things To Do
00:44:01.847 : en:Strange, Beautiful Magic
00:46:06.346 : en:It's Already Begun
00:49:58.954 : en:What's Real, What's Not?
00:52:27.602 : en:Last Chance
00:55:07.512 : en:Taking It All Back
00:58:10.111 : en:When You Die
01:00:26.622 : en:Everything's Changing
01:03:40.274 : en:God's Will
01:10:52.248 : en:Eleven Hours Remain
01:13:19.061 : en:Holes In Their Hearts
01:20:06.802 : en:Fireworks
01:25:50.353 : en:Only You
01:28:50.325 : en:Wake Up, Start Over
01:37:28.384 : en:End Titles
-Скриншоты:

Время раздачи: 24/7 - круглосуточно

[Цитировать]



Показать сообщения:    

Текущее время: 07-Дек 00:58

Часовой пояс: UTC + 3


Вы не можете начинать темы
Вы не можете отвечать на сообщения
Вы не можете редактировать свои сообщения
Вы не можете удалять свои сообщения
Вы не можете голосовать в опросах
Вы не можете прикреплять файлы к сообщениям
Вы не можете скачивать файлы

!ВНИМАНИЕ!
Сайт не предоставляет электронные версии произведений, а занимается лишь коллекционированием и каталогизацией ссылок, присылаемых и публикуемых на форуме нашими читателями. Если вы являетесь правообладателем какого-либо представленного материала и не желаете, чтобы ссылка на него находилась в нашем каталоге, свяжитесь с нами, и мы незамедлительно удалим ее. Файлы для обмена на трекере предоставлены пользователями сайта, и администрация не несет ответственности за их содержание. Просьба не заливать файлы, защищенные авторскими правами, а также файлы нелегального содержания!