[ Сегодня идет свободное скачивание без начисления Download ]


Статистика раздачи
Нет
 
   
 
Top  
 
 
-Пещера / The Cave (2005) BDRemux- Русское название: Пещера
Оригинальное название: The Cave
Страна: США, Германия
Студии: Lakeshore Entertainment, Screen Gems
Год выпуска: 2005
Жанр: Ужасы, Триллер, Приключения-Описание фильма:
В лесных дебрях Румынии группа ученых наталкивается на руины аббатства XIII века. Обследовав их, они совершают удивительное открытие - это сооружение было построено над входом в гигантский подземный грот. А по мнению местных биологов, в гроте существует уникальная и еще не познанная экосистема.
В итоге они отправляются выведывать ее тайны вместе с американскими спелеологами - Джеком, его братом Тайлером и группой лучших в мире ныряльщиков. В их распоряжении - самое современное оборудование, с помощью которого можно в течение 24 часов оставаться под водой. Оказавшись в гроте, исследователи, к своему ужасу, находят не новую экосистему, а невиданных доселе существ...-Режиссер: Брюс Хант / Bruce Hunt
Актеры: Коул Хаузер (Jack McAllister), Эдди Сибриан (Tyler McAllister), Моррис Честнат (Top Buchanan), Лина Хиди (Dr. Kathryn Jennings), Пайпер Перабо (Charlie), Рик Раванелло (Briggs), Дэниэл Дэ Ким (Alex Kim), Киран Дарси-Смит (Strode), Марчел Юреш (Dr. Nicolai), Влад Радеску (Dr. Bacovia), Саймон Кунц-Продолжительность: 01:37:09
Перевод: Профессиональный (двухголосый, закадровый) R5 + Любительский (двухголосый, закадровый) Электричка aka Twix + Любительский (двухголосый, закадровый) пиратский DVD + Профессиональный (многоголосый, закадровый) СТС + Авторский (одноголосый закадровый) С. Визгунов + Украинский профессиональный (двухголосый, закадровый) Так треба продакшн
Оригинальная аудиодорожка: английский
Язык субтитров: русские, английские
Вид субтитров: Вшитые- -
Рейтинг PG-13 - Детям до 13 лет просмотр не желателен-Видеокодек: MPEG-4 AVC/H.264
Битрейт видео: ~19156 kbps
Размер кадра: 1920x1080p
Качество видео: BDRemux 1080p-Аудио 1: Русский: 48 kHz, AC3, 3/2 (L,C,R,l,r) + LFE ch, ~384.00 kbps avg | R5
Аудио 2: Русский: 48 kHz, AC3, 2/0 (L,R), ~192.00 kbps avg | Электричка aka Twix
Аудио 3: Русский: 48 kHz, AC3, 2/0 (L,R), ~192.00 kbps avg | пиратский DVD
Аудио 4: Русский: 48 kHz, AC3, 2/0 (L,R), ~192.00 kbps avg | CTC
Аудио 5: Русский: 48 kHz, AC3, 2/0 (L,R), ~192.00 kbps avg | С. Визгунов
Аудио 6: Украинский: 48 kHz, AC3, 3/2 (L,C,R,l,r) + LFE ch, ~384.00 kbps avg | студия "Так треба продакшн
Аудио 7: Английский: 48 kHz, AC3, 2/0 (L,R), ~256.00 kbps avg |Commentary with director Bruce Hunt, producer Andrew Mason
Аудио 8: Английский: DTS-HD MA 5.1 / (48 kHz / 2420 kbps / 16-bit) (DTS Core: 5.1 / 48 kHz / 1509 kbps / 16-bit) | Original
Чаптеры: Сохранены оригинальные чаптеры с Blu-Ray
-

MediaInfo:

General
Complete name : O:\\The.Cave.2005.BDRemux.1080p.mkv
Format : Matroska
File size : 15.8 GiB
Duration : 1h 37mn
Overall bit rate : 23.4 Mbps
Encoded date : UTC 2013-03-14 19:19:43
Writing application : mkvmerge v5.2.1 ('A Far Off Place') built on Jan 2 2012 23:21:10
Writing library : libebml v1.2.3 + libmatroska v1.3.0
Video
ID : 1
Format : MPEG Video
Format version : Version 2
Format profile : [email protected]
Format settings, BVOP : No
Format settings, Matrix : Default
Codec ID : V_MPEG2
Codec ID/Info : MPEG 1 or 2 Video
Duration : 1h 37mn
Bit rate mode : Variable
Nominal bit rate : 35.0 Mbps
Width : 1 920 pixels
Height : 1 080 pixels
Display aspect ratio : 16:9
Frame rate : 23.976 fps
Resolution : 8 bits
Colorimetry : 4:2:0
Scan type : Progressive
Bits/(Pixel*Frame) : 0.704
Audio #1
ID : 2
Format : AC-3
Format/Info : Audio Coding 3
Codec ID : A_AC3
Duration : 1h 37mn
Bit rate mode : Constant
Bit rate : 384 Kbps
Channel(s) : 6 channels
Channel positions : Front: L C R, Surround: L R, LFE
Sampling rate : 48.0 KHz
Stream size : 267 MiB (2%)
Title : AC3 5.1 @ 384 kbps - DVO, R5
Language : Russian
Audio #2
ID : 3
Format : AC-3
Format/Info : Audio Coding 3
Codec ID : A_AC3
Duration : 1h 37mn
Bit rate mode : Constant
Bit rate : 192 Kbps
Channel(s) : 2 channels
Channel positions : L R
Sampling rate : 48.0 KHz
Stream size : 133 MiB (1%)
Title : AC3 2.0 @ 192 kbps - DVO, пиратский DVD
Language : Russian
Audio #3
ID : 4
Format : AC-3
Format/Info : Audio Coding 3
Codec ID : A_AC3
Duration : 1h 37mn
Bit rate mode : Constant
Bit rate : 192 Kbps
Channel(s) : 2 channels
Channel positions : L R
Sampling rate : 48.0 KHz
Stream size : 133 MiB (1%)
Title : AC3 2.0 @ 192 kbps - DVO, Электричка aka Twix
Language : Russian
Audio #4
ID : 5
Format : AC-3
Format/Info : Audio Coding 3
Codec ID : A_AC3
Duration : 1h 37mn
Bit rate mode : Constant
Bit rate : 192 Kbps
Channel(s) : 2 channels
Channel positions : L R
Sampling rate : 48.0 KHz
Stream size : 133 MiB (1%)
Title : AC3 2.0 @ 192 kbps - MVO, CTC
Language : Russian
Audio #5
ID : 6
Format : AC-3
Format/Info : Audio Coding 3
Codec ID : A_AC3
Duration : 1h 37mn
Bit rate mode : Constant
Bit rate : 192 Kbps
Channel(s) : 2 channels
Channel positions : L R
Sampling rate : 48.0 KHz
Stream size : 133 MiB (1%)
Title : AC3 2.0 @ 192 kbps - VO, Vizgunov
Language : Russian
Audio #6
ID : 7
Format : AC-3
Format/Info : Audio Coding 3
Codec ID : A_AC3
Duration : 1h 37mn
Bit rate mode : Constant
Bit rate : 384 Kbps
Channel(s) : 6 channels
Channel positions : Front: L C R, Surround: L R, LFE
Sampling rate : 48.0 KHz
Stream size : 267 MiB (2%)
Title : AC3 5.1 @ 384 kbps - DVO, студия "Так треба продакшн"
Language : Ukrainian
Audio #7
ID : 8
Format : AC-3
Format/Info : Audio Coding 3
Format profile : Dolby Digital
Codec ID : A_AC3
Duration : 1h 37mn
Bit rate mode : Constant
Bit rate : 256 Kbps
Channel(s) : 2 channels
Channel positions : L R
Sampling rate : 48.0 KHz
Stream size : 178 MiB (1%)
Title : AC3 2.0 @ 256 kbps - Commentary with director Bruce Hunt, producer Andrew Mason and special effects producer James McQuaide
Audio #8
ID : 9
Format : DTS
Format/Info : Digital Theater Systems
Format profile : MA
Codec ID : A_DTS
Duration : 1h 37mn
Bit rate mode : Variable
Channel(s) : 6 channels
Channel positions : Front: L C R, Surround: L R, LFE
Sampling rate : 48.0 KHz
Resolution : 16 bits
Title : DTS-HD MA 5.1 Original @ 2420 kbps
Text #1
ID : 10
Format : UTF-8
Codec ID : S_TEXT/UTF8
Codec ID/Info : UTF-8 Plain Text
Title : Full Rus
Language : Russian
Text #2
ID : 11
Format : UTF-8
Codec ID : S_TEXT/UTF8
Codec ID/Info : UTF-8 Plain Text
Title : Full Eng
Menu
00:00:00.000 : :Start
00:06:49.742 : :"Where's the cave?"
00:10:57.698 : :Cave Divers
00:16:57.725 : :To the Carpathians
00:23:22.734 : :The Plan
00:30:50.723 : :Descent
00:37:44.720 : :Scouts
00:42:09.610 : :In the Water
00:49:31.093 : :Chewed
00:55:25.363 : :"We are the rescue team."
01:00:03.224 : :Jack Attack
01:07:57.031 : :Back in the Food Chain
01:14:43.729 : :A Current
01:19:21.965 : :A Serious Death Wish
01:26:25.388 : :"It's over."
-Скриншоты:

Время раздачи: 24/7 - круглосуточно

[Цитировать]



Показать сообщения:    

Текущее время: 06-Дек 22:57

Часовой пояс: UTC + 3


Вы не можете начинать темы
Вы не можете отвечать на сообщения
Вы не можете редактировать свои сообщения
Вы не можете удалять свои сообщения
Вы не можете голосовать в опросах
Вы не можете прикреплять файлы к сообщениям
Вы не можете скачивать файлы

!ВНИМАНИЕ!
Сайт не предоставляет электронные версии произведений, а занимается лишь коллекционированием и каталогизацией ссылок, присылаемых и публикуемых на форуме нашими читателями. Если вы являетесь правообладателем какого-либо представленного материала и не желаете, чтобы ссылка на него находилась в нашем каталоге, свяжитесь с нами, и мы незамедлительно удалим ее. Файлы для обмена на трекере предоставлены пользователями сайта, и администрация не несет ответственности за их содержание. Просьба не заливать файлы, защищенные авторскими правами, а также файлы нелегального содержания!