[ Today is free to download without increasing Download ]

DL-List and Torrent activity
-Мул / The Mule (2013) HDRip- Русское название: Мул
Оригинальное название: The Mule
Год выпуска: 2013
Производство: США / Sakonnet Capital Partners, Voltage Pictures
Жанр: Триллер
Перевод: Многоголосый закадровый, профессиональный [Лицензия]
Субтитры: Отсутствуют
Дата мировой премьеры: 26 февраля 2013
Дата выхода DVD релиза: 20 марта 2013, «Кармен Видео», «ВС трейд»
Режиссер: Габриела Тальявини
Актеры: Шэрон Стоун, Билли Зейн, Роземберг Сальгадо, Мигель Родарт, Джованна Закариас, Ольга Сегура, Маноло Кардона, Гилмер Беджарано, Себестино Салазар, Промис ЛаМарко
Описание фильма:
Американская женщина репортер в поисках своего пропавшего брата, на фоне насилия и человеческой контрабанды на границе США с Мексикой.

Продолжительность: 01:36:20
Качество видео: HDRip
Видеокодек: Xvid
Битрейт видео: ~1644 Kb/s
Размер кадра: 720x304
Аудиокодек: AC3 5.1
Битрейт аудио: 384 Kb/s


Полное имя                               : F:\Фильмы\Мул\Mul.2012.P.HDRip.avi
Формат                                   : AVI
Формат/Информация                        : Audio Video Interleave
Размер файла                             : 1,37 Гбайт
Продолжительность                        : 1 ч. 36 м.
Общий поток                              : 2035 Кбит/сек
Название фильма                          : Mul.2012.P.HDRip
Режиссёр                                 : IRONCLUB
Жанр                                     : Thriller
Программа кодирования                    : VirtualDubMod (build 2540/release)
Формат оригинала/Имя                     : Movie
Идентификатор                            : 0
Формат                                   : MPEG-4 Visual
Профиль формата                          : Advanced Simple@L5
Параметр BVOP формата                    : 1
Параметр QPel формата                    : Нет
Параметр GMC формата                     : Без точки перехода
Параметр матрицы формата                 : Выборочная
Идентификатор кодека                     : XVID
Идентификатор кодека/Подсказка           : XviD
Продолжительность                        : 1 ч. 36 м.
Битрейт                                  : 1642 Кбит/сек
Ширина                                   : 720 пикселей
Высота                                   : 304 пикселя
Соотношение сторон                       : 2,35:1
Частота кадров                           : 23,976 кадра/сек
Цветовое пространство                    : YUV
Субдискретизация насыщенности            : 4:2:0
Битовая глубина                          : 8 бит
Тип развёртки                            : Прогрессивная
Метод сжатия                             : С потерями
Бит/(Пиксели*Кадры)                      : 0.313
Размер потока                            : 1,10 Гбайт (81%)
Библиотека кодирования                   : XviD 1.2.1 (UTC 2008-12-04)
Идентификатор                            : 1
Формат                                   : AC-3
Формат/Информация                        : Audio Coding 3
Расширение режима                        : CM (complete main)
Параметр Endianness формата              : Big
Идентификатор кодека                     : 2000
Продолжительность                        : 1 ч. 36 м.
Вид битрейта                             : Постоянный
Битрейт                                  : 384 Кбит/сек
Каналы                                   : 6 каналов
Расположение каналов                     : Front: L C R, Side: L R, LFE
Частота                                  : 48,0 КГц
Битовая глубина                          : 16 бит
Метод сжатия                             : С потерями
Размер потока                            : 264 Мбайт (19%)
Выравнивание                             : Разделение по промежуткам
Продолжительность промежутка             : 42  мс. (1,00 видеокадр)
Время предзагрузки промежутка            : 500  мс.

Время раздачи: 24/7 (до 10 скачавших)


Топик был перенесен из форума Новинки кинопроката в форум Триллер

Display posts:    

Current time is: 28-Oct 09:22

All times are UTC + 3

You cannot post new topics in this forum
You cannot reply to topics in this forum
You cannot edit your posts in this forum
You cannot delete your posts in this forum
You cannot vote in polls in this forum
You cannot attach files in this forum
You cannot download files in this forum

The site does not give electronic versions of products, and is engaged only in a collecting and cataloguing of the references sent and published at a forum by our readers. If you are the legal owner of any submitted material and do not wish that the reference to it was in our catalogue, contact us and we shall immediately remove her. Files for an exchange on tracker are given by users of a site, and the administration does not bear the responsibility for their maintenance. The request to not fill in the files protected by copyrights, and also files of the illegal maintenance!