[ Сегодня идет свободное скачивание без начисления Download ]


Статистика раздачи
Нет
 
   
 
Top  
 
 
-Хоббит: Нежданное путешествие / The Hobbit: An Unexpected Journey (2012) BDRip- Русское название: Хоббит: Нежданное путешествие
Оригинальное название: The Hobbit: An Unexpected Journey
Год выпуска: 2012
Производство: США, Новая Зеландия, Metro-Goldwyn-Mayer (MGM), New Line Cinema, WingNut Films
Жанр: Фэнтези, Приключения
Перевод: Дублированный [Чистый звук]
Субтитры: Вшитые, отключаемые
Язык субтитров: Русский (надписи, речь орков и т.д.), Русский, Английский, Английский (SDH)
Дата мировой премьеры: 28 ноября 2012
Дата российской премьеры: 19 декабря 2012, «Каро-Премьер»
Дата выхода DVD релиза: 11 апреля 2013, «CP Дистрибуция»
Режиссер: Питер Джексон
Актеры: Мартин Фриман, Иэн МакКеллен, Ричард Армитидж, Джеймс Несбитт, Кен Стотт, Грэм МакТавиш, Уильям Кирчер, Стивен Хантер, Дин О’Горман, Эйдан Тернер, Джон Коллен, Питер Хэмблтон, Джед Брофи, Энди Серкис, Кейт Бланшетт, Элайджа Вуд, Хьюго Уивинг, Кристофер Ли, Иэн Холм, Марк Хэдлоу
Описание фильма:
Фильм повествует о путешествии Бильбо Бэггинса, который пускается в грандиозный поход, целью которого является отвоевание утраченного королевства гномов Эребор у зловещего дракона Смога. Совершенно неожиданно с хоббитом налаживает контакт волшебник Гэндальф Серый. Так Бильбо находит себя, присоединяясь к компании тринадцати гномов, возглавляемых легендарным воином, Торином Дубощитом. Их путешествие проляжет через Дикий Край, через предательские земли, населенные гоблинами и орками, смертоносными варгами и гигантскими пауками, народом, меняющим шкуры, и волшебниками. И хотя их цель находится на Востоке среди пустошей Одинокой Горы, сначала им придется выбраться из туннелей гоблинов, где Бильбо встретит существо, которое изменит его жизнь навсегда… Голлума. Здесь, один на один с Голлумом, на берегу подземного озера, непритязательный Бильбо Бэггинс обнаружит не только скрытые в глубине души хитрость и отвагу, которые удивят даже его, но и завладеет «прелестным» колечком Голлума, которое обладает нежданными и полезными свойствами… Простое золотое кольцо, c которым связана судьба всего Средиземья, нитями, о которых Бильбо не мог даже вообразить.

Продолжительность: 02:49:36
Качество видео: BDRip-Видеокодек: MPEG-4 AVC/H.264
Битрейт видео: ~13,9 Mbps
Размер кадра: 1920 x 800
Аудиокодек: AC3 5.1 / DTS-HD MA
Аудио 1: Русский, AC3 5.1, 448 kbps, 48 kHz
Аудио 2: Английский, DTS-HD MA 7.1, 5456 kbps, 48 kHz-Сэмпл: Скачать-

MediaInfo:

Общее
Уникальный идентификатор : 210294606315687060622176183313934741620 (0x9E3544980547D33EA61A866F4BE67074)
Полное имя : D:\Films\The.Hobbit.An.Unexpected.Journey.2012.3D.BDRip.HSBS.1080p.CHD3D.mkv
Формат : Matroska
Версия формата : Version 2
Размер файла : 19,3 Гбайт
Продолжительность : 2 ч. 49 м.
Режим общего битрейта : Переменный
Общий поток : 16,3 Мбит/сек
Название фильма : HOBBIT_PT1_D1.Title100.Bluray3DRip
Дата кодирования : UTC 2013-03-05 07:51:11
Программа кодирования : mkvmerge v5.2.0 ('I can't explain') built on Dec 18 2011 18:12:03
Библиотека кодирования : libebml v1.2.3 + libmatroska v1.3.0
Видео
Идентификатор : 1
Формат : AVC
Формат/Информация : Advanced Video Codec
Профиль формата : High@L4.1
Параметр CABAC формата : Да
Параметр ReFrames формата : 3 кадра
Идентификатор кодека : V_MPEG4/ISO/AVC
Продолжительность : 2 ч. 49 м.
Битрейт : 13,9 Мбит/сек
Ширина : 1920 пикселей
Высота : 800 пикселей
Соотношение сторон : 2,40:1
Частота кадров : 23,976 кадра/сек
Цветовое пространство : YUV
Субдискретизация насыщенности : 4:2:0
Битовая глубина : 8 бит
Тип развёртки : Прогрессивная
Бит/(Пиксели*Кадры) : 0.378
Размер потока : 16,5 Гбайт (85%)
Библиотека кодирования : x264 core
Язык : English
Default : Да
Forced : Нет
Основные цвета : BT.709-5, BT.1361, IEC 61966-2-4, SMPTE RP177
Характеристики трансфера : BT.709-5, BT.1361
Коэффициенты матрицы : BT.709-5, BT.1361, IEC 61966-2-4 709, SMPTE RP177
Аудио #1
Идентификатор : 2
Формат : AC-3
Формат/Информация : Audio Coding 3
Расширение режима : CM (complete main)
Идентификатор кодека : A_AC3
Продолжительность : 2 ч. 49 м.
Вид битрейта : Постоянный
Битрейт : 448 Кбит/сек
Каналы : 6 каналов
Расположение каналов : Front: L C R, Side: L R, LFE
Частота : 48,0 КГц
Битовая глубина : 16 бит
Метод сжатия : С потерями
Размер потока : 543 Мбайт (3%)
Заголовок : DUB [LINE]
Язык : Russian
Default : Да
Forced : Нет
Аудио #2
Идентификатор : 3
Формат : DTS
Формат/Информация : Digital Theater Systems
Профиль формата : MA / Core
Идентификатор кодека : A_DTS
Продолжительность : 2 ч. 49 м.
Вид битрейта : Переменный
Битрейт : 1597 Кбит/сек / 1510 Кбит/сек
Каналы : 8 каналов / 6 каналов
Расположение каналов : Front: L C R, Side: L R, Back: L R, LFE / Front: L C R, Side: L R, LFE
Частота : 48,0 КГц
Битовая глубина : 24 бит
Метод сжатия : Без потерь / Lossy
Язык : English
Default : Нет
Forced : Нет
Текст #1
Идентификатор : 4
Формат : UTF-8
Идентификатор кодека : S_TEXT/UTF8
Идентификатор кодека/Информация : UTF-8 Plain Text
Заголовок : Forced
Язык : Russian
Default : Да
Forced : Нет
Текст #2
Идентификатор : 5
Формат : UTF-8
Идентификатор кодека : S_TEXT/UTF8
Идентификатор кодека/Информация : UTF-8 Plain Text
Язык : Russian
Default : Нет
Forced : Нет
Текст #3
Идентификатор : 6
Формат : UTF-8
Идентификатор кодека : S_TEXT/UTF8
Идентификатор кодека/Информация : UTF-8 Plain Text
Язык : English
Default : Нет
Forced : Нет
Текст #4
Идентификатор : 7
Формат : UTF-8
Идентификатор кодека : S_TEXT/UTF8
Идентификатор кодека/Информация : UTF-8 Plain Text
Заголовок : SDH
Язык : English
Default : Нет
Forced : Нет
Меню
00:00:00.000 : en:(01)00:00:00:000
00:08:51.531 : en:(02)00:08:51:531
00:12:58.903 : en:(03)00:12:58:903
00:16:34.618 : en:(04)00:16:34:618
00:20:50.666 : en:(05)00:20:50:666
00:25:09.007 : en:(06)00:25:09:007
00:33:14.409 : en:(07)00:33:14:409
00:38:26.804 : en:(08)00:38:26:804
00:43:40.367 : en:(09)00:43:40:367
00:50:12.300 : en:(10)00:50:12:300
00:55:16.938 : en:(11)00:55:16:938
00:57:04.838 : en:(12)00:57:04:838
01:07:51.984 : en:(13)01:07:51:984
01:12:11.368 : en:(14)01:12:11:368
01:16:03.559 : en:(15)01:16:03:559
01:22:06.463 : en:(16)01:22:06:463
01:28:49.991 : en:(17)01:28:49:991
01:32:03.518 : en:(18)01:32:03:518
01:33:42.495 : en:(01)00:00:00:000
01:40:29.610 : en:(02)00:06:49:117
01:43:06.850 : en:(03)00:09:26:357
01:49:12.966 : en:(04)00:15:32:473
01:54:04.590 : en:(05)00:20:24:097
01:56:58.097 : en:(06)00:23:17:604
02:10:27.948 : en:(07)00:36:47:455
02:12:26.024 : en:(08)00:38:45:531
02:13:37.721 : en:(09)00:39:57:228
02:17:59.440 : en:(10)00:44:18:947
02:20:09.362 : en:(11)00:46:28:869
02:22:59.115 : en:(12)00:49:18:622
02:33:58.565 : en:(13)01:00:18:072
02:39:27.561 : en:(14)01:05:47:068
-Скриншоты:
-Время раздачи: С 8:00 до 22:00 до 5 скачавших

[Цитировать]



Показать сообщения:    

Текущее время: 09-Дек 04:55

Часовой пояс: UTC + 3


Вы не можете начинать темы
Вы не можете отвечать на сообщения
Вы не можете редактировать свои сообщения
Вы не можете удалять свои сообщения
Вы не можете голосовать в опросах
Вы не можете прикреплять файлы к сообщениям
Вы не можете скачивать файлы

!ВНИМАНИЕ!
Сайт не предоставляет электронные версии произведений, а занимается лишь коллекционированием и каталогизацией ссылок, присылаемых и публикуемых на форуме нашими читателями. Если вы являетесь правообладателем какого-либо представленного материала и не желаете, чтобы ссылка на него находилась в нашем каталоге, свяжитесь с нами, и мы незамедлительно удалим ее. Файлы для обмена на трекере предоставлены пользователями сайта, и администрация не несет ответственности за их содержание. Просьба не заливать файлы, защищенные авторскими правами, а также файлы нелегального содержания!