[ Сегодня идет свободное скачивание без начисления Download ]


Статистика раздачи
Нет
 
   
 
Top  
 
 
[sh]Исчезнувшие[/sh]
-Год выпуска: 2009
Жанр: Военная драма
Продолжительность: 00:48:22 х 4
Производство: ПРОСИНЕМА-ПРОДАКШН-Режиссер: Вадим Островский
В ролях: Кирилл Пирогов, Владимир Толоконников, Николай Иванов, Егор Пазенко, Александр Воробьев, Михаил Трухин, Андрей Феськов, Елена Лядова-Описание: 1942 год. Бежавший из плена майор Топорков пробирается в окруженный немцами партизанский лагерь. Майор просит командира отряда дать ему обоз с оружием, чтобы пробиться к концлагерю: заключенные готовят восстание. Командир предупреждает Топоркова - в его отряде есть предатель, снабжающий немцев информацией. Он наверняка попытается уйти в составе группы, сопровождающей обоз. В ряды добровольцев просится молоденький партизан Мошкин, отец которого служил полицаем. После первого привала Мошкин исчезает...- -Качество: DVDRip
Формат: AVI
Видео кодек: XviD
Аудио кодек: AC3
Видео: 688x416 (1.65:1), 25 fps, XviD build 50 ~1519 kbps avg, 0.21 bit/pixel
Аудио: 48 kHz, AC3 Dolby Digital, 2/0 (L,R) ch, ~192.00 kbps avg
-

MI

Исчезнувшие.DVDRip-SVAT\Исчезнувшие.01.DVDRip-SVAT.avi
Format : AVI
Format/Info : Audio Video Interleave
File size : 641 MiB
Duration : 52mn 4s
Overall bit rate : 1 721 Kbps
Writing application : VirtualDubMod 1.5.10.3 | www.virtualdub-fr.org || (build 2550/release)
Writing library : VirtualDubMod build 2550/release
Video
ID : 0
Format : MPEG-4 Visual
Format profile : Advanced [email protected]
Format settings, BVOP : 2
Format settings, QPel : No
Format settings, GMC : No warppoints
Format settings, Matrix : Custom
Codec ID : DX50
Codec ID/Hint : DivX 5
Duration : 52mn 4s
Bit rate : 1 519 Kbps
Width : 688 pixels
Height : 416 pixels
Display aspect ratio : 1.654
Frame rate : 25.000 fps
Color space : YUV
Chroma subsampling : 4:2:0
Bit depth : 8 bits
Scan type : Progressive
Compression mode : Lossy
Bits/(Pixel*Frame) : 0.212
Stream size : 566 MiB (88%)
Writing library : XviD 1.2.1 (UTC 2008-12-04)
Audio
ID : 1
Format : AC-3
Format/Info : Audio Coding 3
Mode extension : CM (complete main)
Codec ID : 2000
Duration : 52mn 4s
Bit rate mode : Constant
Bit rate : 192 Kbps
Channel(s) : 2 channels
Channel positions : Front: L R
Sampling rate : 48.0 KHz
Bit depth : 16 bits
Compression mode : Lossy
Stream size : 71.5 MiB (11%)
Alignment : Split accross interleaves
Interleave, duration : 40 ms (1.00 video frame)
Interleave, preload duration : 500 ms

Скриншоты

[Цитировать]



Показать сообщения:    

Текущее время: 05-Дек 07:34

Часовой пояс: UTC + 3


Вы не можете начинать темы
Вы не можете отвечать на сообщения
Вы не можете редактировать свои сообщения
Вы не можете удалять свои сообщения
Вы не можете голосовать в опросах
Вы не можете прикреплять файлы к сообщениям
Вы не можете скачивать файлы

!ВНИМАНИЕ!
Сайт не предоставляет электронные версии произведений, а занимается лишь коллекционированием и каталогизацией ссылок, присылаемых и публикуемых на форуме нашими читателями. Если вы являетесь правообладателем какого-либо представленного материала и не желаете, чтобы ссылка на него находилась в нашем каталоге, свяжитесь с нами, и мы незамедлительно удалим ее. Файлы для обмена на трекере предоставлены пользователями сайта, и администрация не несет ответственности за их содержание. Просьба не заливать файлы, защищенные авторскими правами, а также файлы нелегального содержания!