[ Сегодня идет свободное скачивание без начисления Download ]


Статистика раздачи
Нет
 
   
 
Top  
 
 
-Любовь вне правил / Leatherheads (2008) BDRip-«Ничто так не мешает любви, как соперничество.»- Русское название: Любовь вне правил
Оригинальное название: Leatherheads
Год выпуска: 2008
Жанр: Романтическая комедия, спорт
Описание фильма:
1925 год. Додж Коннели — очаровательный, дерзкий капитан футбольной команды, который полон решительности сделать свою команду низшего уровня известной по всей Америке. В тот момент, когда игроки теряют спонсора, да и сама лига находится на грани развала, Додж убеждает звездного игрока из колледжа присоединится к его сброду. Он надеется, что это поможет команде наконец привлечь к себе внимание всей страны.
Так в команде появляется Картер Разерфорд, любимец Америки. Герой Первой Мировой войны, в одиночку взявший в плен многочисленный отряд немецких солдат. Помимо того, что Картер — красавец, он еще и может похвастаться невероятной скоростью на поле. В новом игроке все слишком хорошо, чтобы быть правдой, и Лекси Литтлтон решает доказать, что так оно и есть.
Начинающая репортерша Лекси подозревает, что военная история Картера не без изъянов. И пока она копается в прошлом, Додж и Картер увлекаются девушкой, что приводит к серьезному соперничеству двух товарищей по команде.
Режиссер: Джордж Клуни
Актеры: Джордж Клуни, Рене Зельвегер, Джон Красински, Джонатан Прайс, Стивен Рут, Уэйн Дювал
Продолжительность: 01:53:43
Перевод: Многоголосый закадровый

Дата мировой премьеры: 24 марта 2008
Дата выхода DVD релиза: 9 декабря 2008
Видеокодек: Xvid
Битрейт видео: ~1627 kbps
Размер кадра: 720х384
Качество видео: BDRip
Аудиокодек: AC3 2.0
Битрейт аудио: 192 kb/s
&

MI

Общее
Полное имя : E:\Фильмы М\Leatherheads.2008.BDRip.avi
Формат : AVI
Формат/Информация : Audio Video Interleave
Размер файла : 1,45 Гбайт
Продолжительность : 1 ч. 53 м.
Общий поток : 1828 Кбит/сек
Программа кодирования : VirtualDubModRus 1.5.10.2 (build 2542/release)
Библиотека кодирования : VirtualDubMod build 2542/release
Видео
Идентификатор : 0
Формат : MPEG-4 Visual
Профиль формата : Advanced Simple@L5
Параметр BVOP формата : 1
Параметр QPel формата : Нет
Параметр GMC формата : Без точки перехода
Параметр матрицы формата : Выборочная
Режим смешивания : Сжатый битовый поток
Идентификатор кодека : XVID
Идентификатор кодека/Подсказка : XviD
Продолжительность : 1 ч. 53 м.
Битрейт : 1627 Кбит/сек
Ширина : 720 пикселей
Высота : 384 пикселя
Соотношение сторон : 1,85:1
Частота кадров : 23,976 кадра/сек
Цветовое пространство : YUV
Субдискретизация насыщенности : 4:2:0
Битовая глубина : 8 бит
Тип развёртки : Прогрессивная
Метод сжатия : С потерями
Бит/(Пиксели*Кадры) : 0.246
Размер потока : 1,29 Гбайт (89%)
Библиотека кодирования : XviD 65
Аудио
Идентификатор : 1
Формат : AC-3
Формат/Информация : Audio Coding 3
Расширение режима : CM (complete main)
Параметр Endianness формата : Big
Идентификатор кодека : 2000
Продолжительность : 1 ч. 53 м.
Вид битрейта : Постоянный
Битрейт : 192 Кбит/сек
Каналы : 2 канала
Расположение каналов : Front: L R
Частота : 48,0 КГц
Битовая глубина : 16 бит
Метод сжатия : С потерями
Размер потока : 155 Мбайт (10%)
Выравнивание : Разделение по промежуткам
Продолжительность промежутка : 42 мс. (1,01 видеокадр)
Время предзагрузки промежутка : 500 мс.
Заголовок : Профессиональный (многоголосый, закадровый)
Скриншоты:

Время раздачи: С 23:00 до 8:30

[Цитировать]



Показать сообщения:    

Текущее время: 10-Дек 23:32

Часовой пояс: UTC + 3


Вы не можете начинать темы
Вы не можете отвечать на сообщения
Вы не можете редактировать свои сообщения
Вы не можете удалять свои сообщения
Вы не можете голосовать в опросах
Вы не можете прикреплять файлы к сообщениям
Вы не можете скачивать файлы

!ВНИМАНИЕ!
Сайт не предоставляет электронные версии произведений, а занимается лишь коллекционированием и каталогизацией ссылок, присылаемых и публикуемых на форуме нашими читателями. Если вы являетесь правообладателем какого-либо представленного материала и не желаете, чтобы ссылка на него находилась в нашем каталоге, свяжитесь с нами, и мы незамедлительно удалим ее. Файлы для обмена на трекере предоставлены пользователями сайта, и администрация не несет ответственности за их содержание. Просьба не заливать файлы, защищенные авторскими правами, а также файлы нелегального содержания!