[ Сегодня идет свободное скачивание без начисления Download ]


Статистика раздачи
Нет
 
   
 
Top  
 
 
-Идеальный незнакомец / Perfect stranger (2007) HDRip- Русское название: Идеальный незнакомец
Оригинальное название: Perfect stranger
Год выпуска: 2007
Жанр: Триллер, Криминал, Детектив
Производство: США, Revolution Studios
Описание фильма:
Руана Прайс (Берри), журналистка одной из самых популярных газет Нью-Йорка, узнав о смерти друга детства, начинает собственное независимое расследование причин его гибели. После некоторых обширных исследований, она убеждается, что все пути раскрытия дела ведут к мультимиллионеру Хиллу (Уиллис), владельцу респектабельного рекламного агентства. Изучая его от корки до корки, Руана вскоре находит немало каверзных подробностей его жизни, однако всего, что имеется в её распоряжении, недостаточно для привлечения столь известного человека к суду. Тогда молодая и красивая девушка решает восстановить справедливость, познакомившись с Хиллом онлайн.
Режиссер: Джеймс Фоли
Актеры: Холли Берри, Брюс Уиллис, Rob Alicea, Джейсон Антун, Anya Avaeva, Ники Линн Ококс, Кэролин Баррет, Ilana Becker, Джейн Брэдбери, Джаред Бурк, Karl Bury, Лиа Каприс, Майкл Каррара, Kathleen Chalfant, Маркус Коллинз, Патти Д`Арбанвилль, Гари Дурдан, Стивен Дж. Идс, МакКензи Фэллон, Тамара Фельдман, Джон Хейнлейн
Продолжительность: 01:48:58
Перевод: Дублированный

Дата мировой премьеры: 10 апреля 2007
Дата российской премьеры: 19 апреля 2007
Дата выхода DVD релиза: 28 октября 2010, «Columbia/Sony»
Автор:
Видеокодек: Xvid
Битрейт видео: ~1526 Кбит/сек
Размер кадра: 720 x 296
Качество видео: HDRip
Аудиокодек: AC3 5.1
Битрейт аудио: 448 Кбит/сек

MediaInfo

Формат : AVI
Формат/Информация : Audio Video Interleave
Размер файла : 1,45 Гбайт
Продолжительность : 1 ч. 44 м.
Общий поток : 1984 Кбит/сек
Программа кодирования : VirtualDubMod 1.5.10.2 (build 2540/release)
Библиотека кодирования : VirtualDubMod build 2540/release
Видео
Идентификатор : 0
Формат : MPEG-4 Visual
Профиль формата : Advanced Simple@L5
Параметр BVOP формата : 2
Параметр QPel формата : Нет
Параметр GMC формата : Без точки перехода
Параметр матрицы формата : Default (H.263)
Режим смешивания : Сжатый битовый поток
Идентификатор кодека : XVID
Идентификатор кодека/Подсказка : XviD
Продолжительность : 1 ч. 44 м.
Битрейт : 1526 Кбит/сек
Ширина : 720 пикселей
Высота : 296 пикселей
Соотношение сторон : 2,40:1
Частота кадров : 25,000 кадров/сек
Цветовое пространство : YUV
Субдискретизация насыщенности : 4:2:0
Битовая глубина : 8 бит
Тип развёртки : Прогрессивная
Метод сжатия : С потерями
Бит/(Пиксели*Кадры) : 0.286
Размер потока : 1,11 Гбайт (77%)
Библиотека кодирования : XviD 64
Аудио
Идентификатор : 1
Формат : AC-3
Формат/Информация : Audio Coding 3
Расширение режима : CM (complete main)
Идентификатор кодека : 2000
Продолжительность : 1 ч. 44 м.
Вид битрейта : Постоянный
Битрейт : 448 Кбит/сек
Каналы : 6 каналов
Расположение каналов : Front: L C R, Side: L R, LFE
Частота : 48,0 КГц
Битовая глубина : 16 бит
Метод сжатия : С потерями
Задержка видео : 1 с. 800 мс.
Размер потока : 335 Мбайт (23%)
Выравнивание : Разделение по промежуткам
Продолжительность промежутка : 40 мс. (1,00 видеокадр)
Время предзагрузки промежутка : 500 мс.
Скриншоты:

Время раздачи: с 12:00 до 18:00

[Цитировать]



Показать сообщения:    

Текущее время: 10-Дек 23:20

Часовой пояс: UTC + 3


Вы не можете начинать темы
Вы не можете отвечать на сообщения
Вы не можете редактировать свои сообщения
Вы не можете удалять свои сообщения
Вы не можете голосовать в опросах
Вы не можете прикреплять файлы к сообщениям
Вы не можете скачивать файлы

!ВНИМАНИЕ!
Сайт не предоставляет электронные версии произведений, а занимается лишь коллекционированием и каталогизацией ссылок, присылаемых и публикуемых на форуме нашими читателями. Если вы являетесь правообладателем какого-либо представленного материала и не желаете, чтобы ссылка на него находилась в нашем каталоге, свяжитесь с нами, и мы незамедлительно удалим ее. Файлы для обмена на трекере предоставлены пользователями сайта, и администрация не несет ответственности за их содержание. Просьба не заливать файлы, защищенные авторскими правами, а также файлы нелегального содержания!