[ Сегодня идет свободное скачивание без начисления Download ]


Статистика раздачи
Нет
 
   
 
Top  
 
 
-После прочтения сжечь / Burn After Reading (2008) BDRip- Русское название: После прочтения сжечь
Оригинальное название: Burn After Reading
Год выпуска: 2008
Страна: США, Великобритания, Франция
Слоган: «Каждому по способностям»
Жанр: Драма, комедия, криминал--Режиссер: Итэн Коэн, Джоэл Коэн
Актеры: Джордж Клуни (Harry Pfarrer), Брэд Питт (Chad Feldheimer), Фрэнсис МакДорманд (Linda Litzke), Джон Малкович (Osborne Cox), Тильда Суинтон (Katie Cox), Ричард Дженкинс (Ted), Элизабет Марвел (Sandy Pfarrer), Дэвид Раш (CIA Officer), Дж.К. Симмонс (CIA Superior), Олек Крупа (Krapotkin), Майкл Кантримэн (Alan), Кевин Суссман (Tuchman Marsh Man)
Дублёры: Владимир Вихров (Harry Pfarrer), Всеволод Кузнецов (Chad Feldheimer), Марина Бакина (Linda Litzke), Леонид Белозорович (Osborne Cox), Елена Соловьева (Katie Cox), Владимир Герасимов (Ted), Рудольф Панков (CIA Officer), Александр Бордуков (CIA Superior), Александр Новиков (Krapotkin), Никита Прозоровский (Cosmetic Surgeon)-Описание фильма: Оззи, агента ЦРУ, уволили с поста начальника Балканского направления. Пытаясь преодолеть кризис, он берется за мемуары, содержащие в том числе и секретную информацию. И надо же было такому случиться, что диск с этими данными был потерян в раздевалке спортивного клуба.
Находка попадает в руки легкомысленного тренера Чеда и его не менее легкомысленной подруги Линды. Вместе они решают шантажировать бывшего агента, и начинается такая заварушка, в которой не сможет разобраться даже ЦРУ…- -Продолжительность: 01:35:56
Перевод: Дублированный, многоголосый, авторский
Язык субтитров: Русские, английские
Вид субтитров: Вшитые отключаемые--Качество видео: BDRip
Видеокодек: MPEG-4 AVC/H.264
Битрейт видео: ~3500 Кбит/с
Размер кадра: 1024х554
Аудио 1: Русский: АС3, 6 ch, 448 Кбит/с - Дублированный
Аудио 2: Русский: АС3, 6 ch, 448 Кбит/с - Профессиональный многоголосый
Аудио 3: Русский: АС3, 6 ch, 448 Кбит/с - Авторский (А. Гаврилов)
Аудио 4: Русский: АС3, 6 ch, 448 Кбит/с - Авторский (Ю. Сербин)
Аудио 5: Англ-ий: АС3, 6 ch, 448 Кбит/с-

MediaInfo:

General
Unique ID : 237213370961424277616276837612946874996 (0xB275A228C1278576A2DFD9A457EA6274)
Complete name : D:\Posle.prochtenija.szhech.2008.(H.264).BDRip.mkv
Format : Matroska
Format version : Version 2
File size : 3.85 GiB
Duration : 1h 35mn
Overall bit rate : 5 742 Kbps
Movie name : rip by Lefevr
Encoded date : UTC 2013-03-18 12:14:11
Writing application : mkvmerge v5.4.0 ('Piper') built on Mar 10 2012 13:34:39
Writing library : libebml v1.2.3 + libmatroska v1.3.0
Video
ID : 1
Format : AVC
Format/Info : Advanced Video Codec
Format profile : [email protected]
Format settings, CABAC : Yes
Format settings, ReFrames : 8 frames
Codec ID : V_MPEG4/ISO/AVC
Duration : 1h 35mn
Bit rate : 3 500 Kbps
Width : 1 024 pixels
Height : 554 pixels
Display aspect ratio : 1.85:1
Frame rate mode : Constant
Frame rate : 23.976 fps
Color space : YUV
Chroma subsampling : 4:2:0
Bit depth : 8 bits
Scan type : Progressive
Bits/(Pixel*Frame) : 0.257
Stream size : 2.27 GiB (59%)
Writing library : x264 core 125 r2208 d9d2288
Encoding settings : cabac=1 / ref=8 / deblock=1:-2:-2 / analyse=0x3:0x133 / me=umh / subme=11 / psy=1 / psy_rd=1.00:0.05 / mixed_ref=1 / me_range=32 / chroma_me=1 / trellis=2 / 8x8dct=1 / cqm=0 / deadzone=21,11 / fast_pskip=0 / chroma_qp_offset=-3 / threads=6 / lookahead_threads=1 / sliced_threads=0 / nr=0 / decimate=0 / interlaced=0 / bluray_compat=0 / constrained_intra=0 / bframes=8 / b_pyramid=2 / b_adapt=2 / b_bias=0 / direct=3 / weightb=1 / open_gop=0 / weightp=2 / keyint=240 / keyint_min=23 / scenecut=40 / intra_refresh=0 / rc=2pass / mbtree=0 / bitrate=3500 / ratetol=1.0 / qcomp=0.60 / qpmin=0 / qpmax=69 / qpstep=4 / cplxblur=20.0 / qblur=0.5 / ip_ratio=1.40 / pb_ratio=1.30 / aq=1:0.80
Language : English
Default : Yes
Forced : No
Audio #1
ID : 2
Format : AC-3
Format/Info : Audio Coding 3
Mode extension : CM (complete main)
Format settings, Endianness : Big
Codec ID : A_AC3
Duration : 1h 35mn
Bit rate mode : Constant
Bit rate : 448 Kbps
Channel(s) : 6 channels
Channel positions : Front: L C R, Side: L R, LFE
Sampling rate : 48.0 KHz
Bit depth : 16 bits
Compression mode : Lossy
Stream size : 307 MiB (8%)
Title : TRACK_01_DUB_RUS
Language : Russian
Default : Yes
Forced : No
Audio #2
ID : 3
Format : AC-3
Format/Info : Audio Coding 3
Mode extension : CM (complete main)
Format settings, Endianness : Big
Codec ID : A_AC3
Duration : 1h 35mn
Bit rate mode : Constant
Bit rate : 448 Kbps
Channel(s) : 6 channels
Channel positions : Front: L C R, Side: L R, LFE
Sampling rate : 48.0 KHz
Bit depth : 16 bits
Compression mode : Lossy
Stream size : 307 MiB (8%)
Title : TRACK_02_MVO_RUS
Language : Russian
Default : No
Forced : No
Audio #3
ID : 4
Format : AC-3
Format/Info : Audio Coding 3
Mode extension : CM (complete main)
Format settings, Endianness : Big
Codec ID : A_AC3
Duration : 1h 35mn
Bit rate mode : Constant
Bit rate : 448 Kbps
Channel(s) : 6 channels
Channel positions : Front: L C R, Side: L R, LFE
Sampling rate : 48.0 KHz
Bit depth : 16 bits
Compression mode : Lossy
Stream size : 307 MiB (8%)
Title : TRACK_03_AVO_Gavrilov_RUS
Language : Russian
Default : No
Forced : No
Audio #4
ID : 5
Format : AC-3
Format/Info : Audio Coding 3
Mode extension : CM (complete main)
Format settings, Endianness : Big
Codec ID : A_AC3
Duration : 1h 35mn
Bit rate mode : Constant
Bit rate : 448 Kbps
Channel(s) : 6 channels
Channel positions : Front: L C R, Side: L R, LFE
Sampling rate : 48.0 KHz
Bit depth : 16 bits
Compression mode : Lossy
Stream size : 307 MiB (8%)
Title : TRACK_04_AVO_Zhivov_RUS
Language : Russian
Default : No
Forced : No
Audio #5
ID : 6
Format : AC-3
Format/Info : Audio Coding 3
Mode extension : CM (complete main)
Format settings, Endianness : Big
Codec ID : A_AC3
Duration : 1h 35mn
Bit rate mode : Constant
Bit rate : 448 Kbps
Channel(s) : 6 channels
Channel positions : Front: L C R, Side: L R, LFE
Sampling rate : 48.0 KHz
Bit depth : 16 bits
Compression mode : Lossy
Stream size : 307 MiB (8%)
Title : TRACK_05_ORIGINAL_ENG
Language : English
Default : No
Forced : No
Text #1
ID : 7
Format : UTF-8
Codec ID : S_TEXT/UTF8
Codec ID/Info : UTF-8 Plain Text
Title : TEXT_01_SUB_ENG
Language : English
Default : No
Forced : No
Text #2
ID : 8
Format : UTF-8
Codec ID : S_TEXT/UTF8
Codec ID/Info : UTF-8 Plain Text
Title : TEXT_02_SUB_RUS
Language : Russian
Default : No
Forced : No
Menu
00:00:00.000 : en:Chapter 01
00:05:00.000 : en:Chapter 02
00:10:00.000 : en:Chapter 03
00:15:00.000 : en:Chapter 04
00:20:00.000 : en:Chapter 05
00:25:00.000 : en:Chapter 06
00:30:00.000 : en:Chapter 07
00:35:00.000 : en:Chapter 08
00:40:00.000 : en:Chapter 09
00:45:00.000 : en:Chapter 10
00:50:00.000 : en:Chapter 11
00:55:00.000 : en:Chapter 12
01:00:00.000 : en:Chapter 13
01:05:00.000 : en:Chapter 14
01:10:00.000 : en:Chapter 15
01:15:00.000 : en:Chapter 16
01:20:00.000 : en:Chapter 17
01:25:00.000 : en:Chapter 18
01:30:00.000 : en:Chapter 19
01:35:00.000 : en:Chapter 20

Знаете ли Вы, что...

  • Это первый фильм братьев Коэн, начиная с фильма «Перекрёсток Миллера», в котором оператор не Роджер Дикинс. Его заменяет Эммануэль Любецки.
  • Хотя дом агента ЦРУ находится в Джорджтауне (Вашингтон, округ Колумбия), съёмки сцен фильма проходили на Бруклинских Высотах, так как братья Коэн хотели оставаться в Нью-Йорке, чтобы быть со своей семьёй.
  • Съёмки начались в августе 2007 года и закончились в начале ноября 2007.
  • Слово «Fuck» употребляется в фильме 60 раз.
  • В фильме присутствует ляп. В сцене в Российском посольстве, портрет российского президента Б. Н. Ельцина на стене кабинета меняется на портрет президента В. В. Путина.
  • Когда герой Питта впервые встречается с героем Малковича, он просит называть его «Мистером Блэком». Это сознательный реверанс фильму «Знакомьтесь, Джо Блэк», смазливость героя которого Питт высмеивал тут.
-Скриншоты:
-Время раздачи: С 09:00 до 24:00

[Цитировать]



Показать сообщения:    

Текущее время: 06-Дек 20:58

Часовой пояс: UTC + 3


Вы не можете начинать темы
Вы не можете отвечать на сообщения
Вы не можете редактировать свои сообщения
Вы не можете удалять свои сообщения
Вы не можете голосовать в опросах
Вы не можете прикреплять файлы к сообщениям
Вы не можете скачивать файлы

!ВНИМАНИЕ!
Сайт не предоставляет электронные версии произведений, а занимается лишь коллекционированием и каталогизацией ссылок, присылаемых и публикуемых на форуме нашими читателями. Если вы являетесь правообладателем какого-либо представленного материала и не желаете, чтобы ссылка на него находилась в нашем каталоге, свяжитесь с нами, и мы незамедлительно удалим ее. Файлы для обмена на трекере предоставлены пользователями сайта, и администрация не несет ответственности за их содержание. Просьба не заливать файлы, защищенные авторскими правами, а также файлы нелегального содержания!