[ Сегодня идет свободное скачивание без начисления Download ]


Статистика раздачи
Нет
 
   
 
Top  
 
 
-Аномальный вид / Modus Anomali (2012) WEB-DLRip- Русское название: Аномальный вид
Оригинальное название: Modus Anomali
Год выпуска: 2012
Жанр: ужасы, триллер
Производство: Индонезия / LifeLike Pictures
Описание фильма:
Герой мечется по лесу в поисках своей похищенной семьи. Следуя от одного маячка до другого, расставленных похитителем, он натыкается на лесную сторожку, где ему открываются ужасы, о которых он даже не мог подумать…
Режиссер: Джоко Анвар
Актеры: Рио Деванто, Ханна Аль Рашид, Aridh Tritama, Izzi Isman, Sadha Triyudha, Jose Gamo, Марша Тимоти, Сурья Сапутра
Продолжительность: 01:21:29
Перевод: Одноголосый, закадровый [den904]
Автор перевода: [DeadSno]

Дата мировой премьеры: 26 апреля 2012
Качество видео: WEB-DLRip
Видеокодек: XviD
Битрейт видео: ~ 2208 Кбит/сек
Размер кадра: 720x400
Аудио: MP3, 192 kb/s (2 ch) Русский
Субтитры: Английские (вшитые, не отключаемые)

MediaInfo:

Общее
Полное имя : I:\Kino\Аномальный вид\Anomalnij.vyd.2012.nnm.WEBRip.avi
Формат : AVI
Формат/Информация : Audio Video Interleave
Размер файла : 1,37 Гбайт
Продолжительность : 1 ч. 21 м.
Общий поток : 2410 Кбит/сек
Видео
Идентификатор : 0
Формат : MPEG-4 Visual
Профиль формата : Advanced Simple@L5
Параметр BVOP формата : Нет
Параметр QPel формата : Нет
Параметр GMC формата : Без точки перехода
Параметр матрицы формата : Default (MPEG)
Идентификатор кодека : XVID
Идентификатор кодека/Подсказка : XviD
Продолжительность : 1 ч. 21 м.
Битрейт : 2208 Кбит/сек
Ширина : 720 пикселей
Высота : 400 пикселей
Соотношение сторон : 16:9
Частота кадров : 25,000 кадров/сек
Цветовое пространство : YUV
Субдискретизация насыщенности : 4:2:0
Битовая глубина : 8 бит
Тип развёртки : Прогрессивная
Метод сжатия : С потерями
Бит/(Пиксели*Кадры) : 0.307
Размер потока : 1,26 Гбайт (92%)
Библиотека кодирования : XviD 62
Аудио
Идентификатор : 1
Формат : MPEG Audio
Версия формата : Version 1
Профиль формата : Layer 3
Идентификатор кодека : 55
Идентификатор кодека/Подсказка : MP3
Продолжительность : 1 ч. 21 м.
Вид битрейта : Постоянный
Битрейт : 192 Кбит/сек
Каналы : 2 канала
Частота : 44,1 КГц
Метод сжатия : С потерями
Размер потока : 112 Мбайт (8%)
Выравнивание : Разделение по промежуткам
Продолжительность промежутка : 40 мс. (1,00 видеокадр)
Время предзагрузки промежутка : 500 мс.
Библиотека кодирования : LAMELAME_MAJOR_VERSI
Скриншоты:
Время раздачи: С 09:00 до 24:00 мск

[Цитировать]



Показать сообщения:    

Текущее время: 07-Дек 17:32

Часовой пояс: UTC + 3


Вы не можете начинать темы
Вы не можете отвечать на сообщения
Вы не можете редактировать свои сообщения
Вы не можете удалять свои сообщения
Вы не можете голосовать в опросах
Вы не можете прикреплять файлы к сообщениям
Вы не можете скачивать файлы

!ВНИМАНИЕ!
Сайт не предоставляет электронные версии произведений, а занимается лишь коллекционированием и каталогизацией ссылок, присылаемых и публикуемых на форуме нашими читателями. Если вы являетесь правообладателем какого-либо представленного материала и не желаете, чтобы ссылка на него находилась в нашем каталоге, свяжитесь с нами, и мы незамедлительно удалим ее. Файлы для обмена на трекере предоставлены пользователями сайта, и администрация не несет ответственности за их содержание. Просьба не заливать файлы, защищенные авторскими правами, а также файлы нелегального содержания!