[ Сегодня идет свободное скачивание без начисления Download ]


Статистика раздачи
Нет
 
   
 
Top  
 
 
-Как майк / Like Mike (2002) DVDRip- Русское название: Как майк
Оригинальное название: Like Mike
Год выпуска: 2002
Жанр: Комедия, Фэнтези, Семейный, Спорт
Описание фильма:
Четырнадцатилетний Кэлвин Кэмбридж живет в приюте и мечтает стать известным игроком в баскетбол. Но есть одна проблема — Кэлвин, как говорится «не вышел ростом». Однако мальчик продолжает надеяться, что его мечта осуществиться. Однажды к нему в руки попадает пара старых кроссовок, на которой еще видны почти стершиеся инициалы «М.J.».
Кэлвин решает, что эти кроссовки принадлежали раньше известному игроку и легенде баскетбола Майклу Джордану, а вскоре ему предоставляется случай убедиться, что эта старая пара является по-настоящему волшебной. Одев кроссовки на ноги, Кэвин может делать огромные тридцатифутовые прыжки.
Конечно, такая волшебная способность позволяет мальчику наконец-то осуществить свою мечту и стать популярным баскетболистом, собирающем стадионы изумленных, восторженных зрителей…
Режиссер: Джон Шульц
Актеры: Лил Бау Вау, Моррис Честнат, Джонатан Липники, Бренда Сонг, Джесси Племонс, Джулиус Риттер, Криспин Гловер, Энн Мира, Роберт Форстер, Юджин Леви
Продолжительность: 01:40:02
Перевод: Двуголосый закадровый

Видеокодек: DivX 5
Битрейт видео: ~1637 kb/s
Размер кадра: 704x384
Качество видео: DVDRip
Аудиокодек: AC3 5.1
Битрейт аудио: 384 kb/s

MediaInfo

Полное имя : I:\Like_Mike\kak.maik.cd1.avi
Формат : AVI
Формат/Информация : Audio Video Interleave
Размер файла : 700 Мбайт
Продолжительность : 48 м.
Общий поток : 2031 Кбит/сек
Программа кодирования : VirtualDubMod 1.5.10.1 (build 2439/release)
Библиотека кодирования : VirtualDubMod build 2439/release
Видео
Идентификатор : 0
Формат : MPEG-4 Visual
Параметр BVOP формата : 1
Параметр QPel формата : Нет
Параметр GMC формата : Без точки перехода
Параметр матрицы формата : Default (H.263)
Идентификатор кодека : DX50
Идентификатор кодека/Подсказка : DivX 5
Продолжительность : 48 м.
Битрейт : 1637 Кбит/сек
Ширина : 704 пикс.
Высота : 384 пикс.
Соотношение сторон : 16:9
Частота кадров : 23,976 кадр/сек
Цветовое пространство : YUV
Подвыборка цветности : 4:2:0
Битовая глубина : 8 бит
Тип развёртки : Прогрессивная
Метод сжатия : С потерями
Бит/(Пиксели*Кадры) : 0.253
Размер потока : 564 Мбайт (81%)
Библиотека кодирования : DivX 5.0.5 (UTC 2003-04-24)
Аудио
Идентификатор : 1
Формат : AC-3
Формат/Информация : Audio Coding 3
Расширение режима : CM (complete main)
Идентификатор кодека : 2000
Продолжительность : 48 м.
Вид битрейта : Постоянный
Битрейт : 384 Кбит/сек
Канал(ы) : 6 канала(ов)
Расположение каналов : Front: L C R, Side: L R, LFE
Частота : 48,0 КГц
Битовая глубина : 16 бит
Метод сжатия : С потерями
Размер потока : 132 Мбайт (19%)
Выравнивание : Разделение по промежуткам
Продолжительность промежутка : 42 мс. (1,00 видеокадр)
Время предзагрузки промежутка : 500 ms
Скриншоты:
Время раздачи: 24/7 (до 10 скачавших)

[Цитировать]



Показать сообщения:    

Текущее время: 06-Дек 21:02

Часовой пояс: UTC + 3


Вы не можете начинать темы
Вы не можете отвечать на сообщения
Вы не можете редактировать свои сообщения
Вы не можете удалять свои сообщения
Вы не можете голосовать в опросах
Вы не можете прикреплять файлы к сообщениям
Вы не можете скачивать файлы

!ВНИМАНИЕ!
Сайт не предоставляет электронные версии произведений, а занимается лишь коллекционированием и каталогизацией ссылок, присылаемых и публикуемых на форуме нашими читателями. Если вы являетесь правообладателем какого-либо представленного материала и не желаете, чтобы ссылка на него находилась в нашем каталоге, свяжитесь с нами, и мы незамедлительно удалим ее. Файлы для обмена на трекере предоставлены пользователями сайта, и администрация не несет ответственности за их содержание. Просьба не заливать файлы, защищенные авторскими правами, а также файлы нелегального содержания!