[ Today is free to download without increasing Download ]

DL-List and Torrent activity
-Охота за Янтарной комнатой / Die Jagd nach dem Bernsteinzimmer (2012) HDRip- Русское название: Охота за Янтарной комнатой
Оригинальное название: Die Jagd nach dem Bernsteinzimmer
Год выпуска: 2012
Жанр: Боевик, Приключения
Описание фильма:
Знаменитый кладоискатель Эйк Майерс, занимаясь поисками Янтарной комнаты, исчезнувшей в годы II Мировой войны, попадает в жестокий переплет: оказывается, не он один хочет ее найти. Ему противостоит могущественный концерн, у которого есть свои интересы: ведь комната хранит тайну, способную изменить мир...
Режиссер: Флориан Баксмейер
Актеры: Кай Визингер, Соня Герхардт, Фабиан Буш, Беттина Циммерманн, Анника Блендл, Клеменс Шик, Томас Дарчингер, Андреас Гразински, Ральф Херфорт
Продолжительность: 01:48:43
Перевод: Одноголосый закадровый
Автор перевода: Алпи

Дата мировой премьеры: 16.09. 2012
Видеокодек: Xvid
Битрейт видео: ~1467 кb/s
Размер кадра: 720x400
Качество видео: HDRip
Аудиокодек: AC3 2.0
Битрейт аудио: 448 кb/s
Сэмпл: Ссылка


Complete name : D:\Фильмы\Охота за Янтарной комнатой.HDRip.L1.2012.avi
Format : AVI
Format/Info : Audio Video Interleave
File size : 1.46 GiB
Duration : 1h 48mn
Overall bit rate : 1 925 Kbps
Writing application : VirtualDubMod | www.virtualdub-fr.org || (build 2550/release)
Writing library : VirtualDubMod build 2550/release
ID : 0
Format : MPEG-4 Visual
Format profile : Advanced Simple@L5
Format settings, BVOP : 2
Format settings, QPel : No
Format settings, GMC : No warppoints
Format settings, Matrix : Default (MPEG)
Muxing mode : Packed bitstream
Codec ID : XVID
Codec ID/Hint : XviD
Duration : 1h 48mn
Bit rate : 1 468 Kbps
Width : 720 pixels
Height : 400 pixels
Display aspect ratio : 16:9
Frame rate : 25.000 fps
Color space : YUV
Chroma subsampling : 4:2:0
Bit depth : 8 bits
Scan type : Progressive
Compression mode : Lossy
Bits/(Pixel*Frame) : 0.204
Stream size : 1.11 GiB (76%)
Writing library : XviD 1.2.1 (UTC 2008-12-04)
ID : 1
Format : AC-3
Format/Info : Audio Coding 3
Mode extension : CM (complete main)
Codec ID : 2000
Duration : 1h 48mn
Bit rate mode : Constant
Bit rate : 448 Kbps
Channel(s) : 6 channels
Channel positions : Front: L C R, Side: L R, LFE
Sampling rate : 48.0 KHz
Bit depth : 16 bits
Compression mode : Lossy
Stream size : 348 MiB (23%)
Alignment : Split accross interleaves
Interleave, duration : 40 ms (1.00 video frame)
Interleave, preload duration : 500 ms

Время раздачи: Круглосуточно 24/7 (до 5 скачавших)


Display posts:    

Current time is: 24-Oct 06:23

All times are UTC + 3

You cannot post new topics in this forum
You cannot reply to topics in this forum
You cannot edit your posts in this forum
You cannot delete your posts in this forum
You cannot vote in polls in this forum
You cannot attach files in this forum
You cannot download files in this forum

The site does not give electronic versions of products, and is engaged only in a collecting and cataloguing of the references sent and published at a forum by our readers. If you are the legal owner of any submitted material and do not wish that the reference to it was in our catalogue, contact us and we shall immediately remove her. Files for an exchange on tracker are given by users of a site, and the administration does not bear the responsibility for their maintenance. The request to not fill in the files protected by copyrights, and also files of the illegal maintenance!