[ Сегодня идет свободное скачивание без начисления Download ]


Статистика раздачи
Нет
 
   
 
Top  
 
 
-Охота за Янтарной комнатой / Die Jagd nach dem Bernsteinzimmer (2012) HDRip- Русское название: Охота за Янтарной комнатой
Оригинальное название: Die Jagd nach dem Bernsteinzimmer
Год выпуска: 2012
Жанр: Боевик, Приключения
Описание фильма:
Знаменитый кладоискатель Эйк Майерс, занимаясь поисками Янтарной комнаты, исчезнувшей в годы II Мировой войны, попадает в жестокий переплет: оказывается, не он один хочет ее найти. Ему противостоит могущественный концерн, у которого есть свои интересы: ведь комната хранит тайну, способную изменить мир...
Режиссер: Флориан Баксмейер
Актеры: Кай Визингер, Соня Герхардт, Фабиан Буш, Беттина Циммерманн, Анника Блендл, Клеменс Шик, Томас Дарчингер, Андреас Гразински, Ральф Херфорт
Продолжительность: 01:48:43
Перевод: Одноголосый закадровый
Автор перевода: Алпи

Дата мировой премьеры: 16.09. 2012
Видеокодек: Xvid
Битрейт видео: ~1467 кb/s
Размер кадра: 720x400
Качество видео: HDRip
Аудиокодек: AC3 2.0
Битрейт аудио: 448 кb/s
Сэмпл: Ссылка

MediaInfo:

General
Complete name : D:\Фильмы\Охота за Янтарной комнатой.HDRip.L1.2012.avi
Format : AVI
Format/Info : Audio Video Interleave
File size : 1.46 GiB
Duration : 1h 48mn
Overall bit rate : 1 925 Kbps
Writing application : VirtualDubMod 1.5.10.3 | www.virtualdub-fr.org || (build 2550/release)
Writing library : VirtualDubMod build 2550/release
Video
ID : 0
Format : MPEG-4 Visual
Format profile : Advanced [email protected]
Format settings, BVOP : 2
Format settings, QPel : No
Format settings, GMC : No warppoints
Format settings, Matrix : Default (MPEG)
Muxing mode : Packed bitstream
Codec ID : XVID
Codec ID/Hint : XviD
Duration : 1h 48mn
Bit rate : 1 468 Kbps
Width : 720 pixels
Height : 400 pixels
Display aspect ratio : 16:9
Frame rate : 25.000 fps
Color space : YUV
Chroma subsampling : 4:2:0
Bit depth : 8 bits
Scan type : Progressive
Compression mode : Lossy
Bits/(Pixel*Frame) : 0.204
Stream size : 1.11 GiB (76%)
Writing library : XviD 1.2.1 (UTC 2008-12-04)
Audio
ID : 1
Format : AC-3
Format/Info : Audio Coding 3
Mode extension : CM (complete main)
Codec ID : 2000
Duration : 1h 48mn
Bit rate mode : Constant
Bit rate : 448 Kbps
Channel(s) : 6 channels
Channel positions : Front: L C R, Side: L R, LFE
Sampling rate : 48.0 KHz
Bit depth : 16 bits
Compression mode : Lossy
Stream size : 348 MiB (23%)
Alignment : Split accross interleaves
Interleave, duration : 40 ms (1.00 video frame)
Interleave, preload duration : 500 ms
Скриншоты:

Время раздачи: Круглосуточно 24/7 (до 5 скачавших)

[Цитировать]



Показать сообщения:    

Текущее время: 05-Дек 19:32

Часовой пояс: UTC + 3


Вы не можете начинать темы
Вы не можете отвечать на сообщения
Вы не можете редактировать свои сообщения
Вы не можете удалять свои сообщения
Вы не можете голосовать в опросах
Вы не можете прикреплять файлы к сообщениям
Вы не можете скачивать файлы

!ВНИМАНИЕ!
Сайт не предоставляет электронные версии произведений, а занимается лишь коллекционированием и каталогизацией ссылок, присылаемых и публикуемых на форуме нашими читателями. Если вы являетесь правообладателем какого-либо представленного материала и не желаете, чтобы ссылка на него находилась в нашем каталоге, свяжитесь с нами, и мы незамедлительно удалим ее. Файлы для обмена на трекере предоставлены пользователями сайта, и администрация не несет ответственности за их содержание. Просьба не заливать файлы, защищенные авторскими правами, а также файлы нелегального содержания!