[ Сегодня идет свободное скачивание без начисления Download ]


Статистика раздачи
Нет
 
   
 
Top  
 
 
-Состояние сердца / Heart Condition (1990) DVDRip- Русское название: Состояние сердца
Оригинальное название: Heart Condition
Год выпуска: 1990
Жанр: Комедия, Боевик, Фантастика
Производство: США, New Line Cinema
Описание фильма:
Лос-анджелесский полицейский Джек Муни - расист по убеждению. Можете представить его недовольство, когда он, придя в себя после трансплантационной операции узнает, что ему пересажено сердце негра. И не простого негра, а личного врага Джека - погибшего накануне адвоката, связанного с преступным миром. И можете представить бешенство Джека, когда негр начинает "доставать" его даже после своей смерти, являясь к полицейскому в качестве призрака...
Режиссер: Джеймс Д. Пэрриотт
Актеры: Боб Хоскинс, Дэнзел Вашингтон, Хлои Уэбб, Роджер И. Мосли, Жанет Дюбуа, Алан Рэчинс, Рэй Бэйкер, Джеффри Мик, Ева Ла Ру, Киран Малруни
Продолжительность: 01:40:09
Перевод: Многоголосый закадровый, Авторский одноголосый (А.Михалёв)
Субтитры: отсутствуют

Дата мировой премьеры: 12 января 1990
Видеокодек: Xvid
Битрейт видео: ~1504 Кбит/сек
Размер кадра: 704 х 352
Качество видео: DVDRip
Аудио 1: AC3 2.0, 192Kbps - Многоголосый закадровый
Аудио 2: AC3 5.1, 384Kbps - Авторский одноголосый (А.Михалёв)

MediaInfo

Формат : AVI
Формат/Информация : Audio Video Interleave
Размер файла : 1,47 Гбайт
Продолжительность : 1 ч. 40 м.
Общий поток : 2098 Кбит/сек
Программа кодирования : VirtualDubMod 1.5.10.2 (build 2542/release)
Библиотека кодирования : VirtualDubMod build 2542/release
Видео
Идентификатор : 0
Формат : MPEG-4 Visual
Профиль формата : Advanced Simple@L5
Параметр BVOP формата : 1
Параметр QPel формата : Нет
Параметр GMC формата : Без точки перехода
Параметр матрицы формата : Default (H.263)
Режим смешивания : Сжатый битовый поток
Идентификатор кодека : XVID
Идентификатор кодека/Подсказка : XviD
Продолжительность : 1 ч. 40 м.
Битрейт : 1504 Кбит/сек
Ширина : 704 пикселя
Высота : 352 пикселя
Соотношение сторон : 2,000
Частота кадров : 29,970 кадров/сек
Цветовое пространство : YUV
Субдискретизация насыщенности : 4:2:0
Битовая глубина : 8 бит
Тип развёртки : Прогрессивная
Метод сжатия : С потерями
Бит/(Пиксели*Кадры) : 0.203
Размер потока : 1,05 Гбайт (72%)
Библиотека кодирования : XviD 1.2.1 (UTC 2008-12-04)
Аудио #1
Идентификатор : 1
Формат : AC-3
Формат/Информация : Audio Coding 3
Расширение режима : CM (complete main)
Идентификатор кодека : 2000
Продолжительность : 1 ч. 40 м.
Вид битрейта : Постоянный
Битрейт : 192 Кбит/сек
Каналы : 2 канала
Расположение каналов : Front: L R
Частота : 48,0 КГц
Битовая глубина : 16 бит
Метод сжатия : С потерями
Размер потока : 138 Мбайт (9%)
Выравнивание : Разделение по промежуткам
Продолжительность промежутка : 33 мс. (1,00 видеокадр)
Время предзагрузки промежутка : 500 мс.
Аудио #2
Идентификатор : 2
Формат : AC-3
Формат/Информация : Audio Coding 3
Расширение режима : CM (complete main)
Идентификатор кодека : 2000
Продолжительность : 1 ч. 40 м.
Вид битрейта : Постоянный
Битрейт : 384 Кбит/сек
Каналы : 6 каналов
Расположение каналов : Front: L C R, Side: L R, LFE
Частота : 48,0 КГц
Битовая глубина : 16 бит
Метод сжатия : С потерями
Размер потока : 275 Мбайт (18%)
Выравнивание : Разделение по промежуткам
Продолжительность промежутка : 33 мс. (1,00 видеокадр)
Время предзагрузки промежутка : 500 мс.
Скриншоты:

Время раздачи: с 12:00 до 18:00

[Цитировать]



Показать сообщения:    

Текущее время: 10-Дек 00:26

Часовой пояс: UTC + 3


Вы не можете начинать темы
Вы не можете отвечать на сообщения
Вы не можете редактировать свои сообщения
Вы не можете удалять свои сообщения
Вы не можете голосовать в опросах
Вы не можете прикреплять файлы к сообщениям
Вы не можете скачивать файлы

!ВНИМАНИЕ!
Сайт не предоставляет электронные версии произведений, а занимается лишь коллекционированием и каталогизацией ссылок, присылаемых и публикуемых на форуме нашими читателями. Если вы являетесь правообладателем какого-либо представленного материала и не желаете, чтобы ссылка на него находилась в нашем каталоге, свяжитесь с нами, и мы незамедлительно удалим ее. Файлы для обмена на трекере предоставлены пользователями сайта, и администрация не несет ответственности за их содержание. Просьба не заливать файлы, защищенные авторскими правами, а также файлы нелегального содержания!