[ Сегодня идет свободное скачивание без начисления Download ]


Статистика раздачи
Нет
 
   
 
Top  
 
 
-Жена художника / Marie Kroyer (2012) HDRip- Русское название: Жена художника
Оригинальное название: Marie Kroyer
Год выпуска: 2012
Жанр: Драма, биография
Страна: Дания, Швеция
Описание фильма:
В 1889 году датская художница Мари Трипке вышла замуж за Педера Северина Крёйера, всемирно известного живописца. Они были одной из самых знаменитых семейных пар в стране, вызывая всеобщее восхищение. Выдающиеся люди времени — политики, аристократы, ученые, писатели, королевские особы — мечтали о том, чтобы П. С. Крёйер написал их портреты. Для них это было большой честью. И художник за свою работу мог назначить любую цену. А Мари называли самой красивой женщиной Европы. Жизнь семьи, в которой подрастала дочь Вибеке, выглядела идеальной: творчество, высокий статус, богатство.
Но за внешним благополучием скрывался настоящий ад. Крёйер страдал наследственным психическим расстройством, часто впадал в депрессии.
Из веселого и радостного человека он в одно мгновение мог превращаться в сумасшедшего монстра. Знакомство со шведским композитором Хуго Альвеном, которого Мари полюбила, казалось ей шагом к спасению…
Режиссер: Билле Аугуст
Актеры: Биргитта Йорт Сёренсен, Сёрен Сэттер-Лассен, Сверрир Гуднасон, Лене Мария Кристенсен, Томми Кентер, Нанна Бюль Андресен, Вера Торпп Ларссон, Курт Дрейер, Андерс Гьеллеруп Кох, Метте Мария Аренкиэль
Продолжительность: 01:42:17
Перевод: Многоголосый закадровый

Дата мировой премьеры: 27 сентября 2012
Дата российской премьеры: 3 января 2013, «Cinema Prestige»
Видеокодек: Xvid
Битрейт видео: ~1847 kb/s
Размер кадра: 720x304
Качество видео: HDRip
Аудиокодек: MP3, 2 ch
Битрейт аудио: 192 kb/s

MediaInfo

Формат : AVI
Формат/Информация : Audio Video Interleave
Размер файла : 1,46 Гбайт
Продолжительность : 1 ч. 42 м.
Общий поток : 2048 Кбит/сек
Программа кодирования : VirtualDubMod 1.5.10.3 | www.virtualdub-fr.org || (build 2550/release)
Библиотека кодирования : VirtualDubMod build 2550/release
Видео
Идентификатор : 0
Формат : MPEG-4 Visual
Профиль формата : Advanced Simple@L5
Параметр BVOP формата : 2
Параметр QPel формата : Нет
Параметр GMC формата : Без точки перехода
Параметр матрицы формата : Default (MPEG)
Идентификатор кодека : XVID
Идентификатор кодека/Подсказка : XviD
Продолжительность : 1 ч. 42 м.
Битрейт : 1847 Кбит/сек
Ширина : 720 пикселей
Высота : 304 пикселя
Соотношение сторон : 2,35:1
Частота кадров : 24,000 кадра/сек
Цветовое пространство : YUV
Субдискретизация насыщенности : 4:2:0
Битовая глубина : 8 бит
Тип развёртки : Прогрессивная
Метод сжатия : С потерями
Бит/(Пиксели*Кадры) : 0.352
Размер потока : 1,32 Гбайт (90%)
Библиотека кодирования : XviD 1.2.1 (UTC 2008-12-04)
Аудио
Идентификатор : 1
Формат : MPEG Audio
Версия формата : Version 1
Профиль формата : Layer 3
Режим : Joint stereo
Идентификатор кодека : 55
Идентификатор кодека/Подсказка : MP3
Продолжительность : 1 ч. 42 м.
Вид битрейта : Постоянный
Битрейт : 192 Кбит/сек
Каналы : 2 канала
Частота : 48,0 КГц
Метод сжатия : С потерями
Размер потока : 140 Мбайт (9%)
Выравнивание : Соединение по промежуткам
Продолжительность промежутка : 42 мс. (1,00 видеокадр)
Время предзагрузки промежутка : 504 мс.
Скриншоты:
Смотрите так же другие мои раздачи
Время раздачи: с 08:00 до 23:00 до первых 10-ти скачавших, далее по возможности

[Цитировать]



Показать сообщения:    

Текущее время: 09-Дек 16:31

Часовой пояс: UTC + 3


Вы не можете начинать темы
Вы не можете отвечать на сообщения
Вы не можете редактировать свои сообщения
Вы не можете удалять свои сообщения
Вы не можете голосовать в опросах
Вы не можете прикреплять файлы к сообщениям
Вы не можете скачивать файлы

!ВНИМАНИЕ!
Сайт не предоставляет электронные версии произведений, а занимается лишь коллекционированием и каталогизацией ссылок, присылаемых и публикуемых на форуме нашими читателями. Если вы являетесь правообладателем какого-либо представленного материала и не желаете, чтобы ссылка на него находилась в нашем каталоге, свяжитесь с нами, и мы незамедлительно удалим ее. Файлы для обмена на трекере предоставлены пользователями сайта, и администрация не несет ответственности за их содержание. Просьба не заливать файлы, защищенные авторскими правами, а также файлы нелегального содержания!