[ Сегодня идет свободное скачивание без начисления Download ]


Статистика раздачи
Нет
 
   
 
Top  
 
 
[sh]Я его слепила[/sh]- Жанр: мелодрама
Год выпуска: 2012
Продолжительность: 01:38:18
-Режиссёр: Михаил Жерневский
В ролях: Олеся Фаттахова, Сергей Мухин, Татьяна Чердынцева, Евгений Никитин, Ольга Клебанович, Дмитрий Мухин, Денис Паршин, Виктор Синайский
Описание: Катя работает консультантом в свадебном салоне. Перед ней проходит череда женихов и невест - она помогает им сделать самым счастливым главный день в жизни, но, как обычно это бывает, на свою личную жизнь времени ей не хватает. Однажды к Кате обращается подруга Лера - взбалмошная дочка владельца крупной компании. Лера влюблена в своего коллегу - обычного программиста Гришу, обаятельного недотёпу. Но препятствием к её счастью является отец-деспот, который, не предавая значения чувствам дочки, сам решил подыскать ей жениха. Лера просит Катю научить Гришу «держать марку» и превратить его в первоклассного жениха, на которого бы папаша обратил внимание. Но Лера недоговаривает: на самом деле Гриша ничего не подозревает о её планах на предстоящую помолвку. Лера уверяет его, что перемена внешности нужна для того, чтобы, он смог представить свой гениальный бизнес-план на предстоящем совете директоров. Катя соглашается помочь подруге, но на первой же встрече понимает, что Гриша - «очень запущенный случай»...-Доп. информация:
Страна: Россия Кинокомпания - "Медиапрофсоюз".

-Качество видео: HDTVRip [HDTV 1080i by mydimka]
Формат видео: AVI
Видео: XviD, 704x400 (16:9), 25 fps, ~1923 kbps, 0.273 bpp
Аудио: AC3, 48 kHz, 2/0 (L, R), 16 bit, 192 kbps
-

MediaInfo

Complete name : J:\torrents\Я его слепила 2012\Я его слепила (2012) HDTVRip [rutracker.org].avi
Format : AVI
Format/Info : Audio Video Interleave
File size : 1.46 GiB
Duration : 1h 38mn
Overall bit rate : 2 126 Kbps
Writing application : VirtualDubMod 1.5.10.3 (build 2550/release)
Writing library : VirtualDubMod build 2550/release
Video
ID : 0
Format : MPEG-4 Visual
Format profile : Advanced Simple@L5
Format settings, BVOP : 1
Format settings, QPel : No
Format settings, GMC : No warppoints
Format settings, Matrix : Custom
Codec ID : XVID
Codec ID/Hint : XviD
Duration : 1h 38mn
Bit rate : 1 924 Kbps
Width : 704 pixels
Height : 400 pixels
Display aspect ratio : 16:9
Frame rate : 25.000 fps
Color space : YUV
Chroma subsampling : 4:2:0
Bit depth : 8 bits
Scan type : Progressive
Compression mode : Lossy
Bits/(Pixel*Frame) : 0.273
Stream size : 1.32 GiB (91%)
Writing library : XviD 65
Audio
ID : 1
Format : AC-3
Format/Info : Audio Coding 3
Mode extension : CM (complete main)
Format settings, Endianness : Big
Codec ID : 2000
Duration : 1h 38mn
Bit rate mode : Constant
Bit rate : 192 Kbps
Channel(s) : 2 channels
Channel positions : Front: L R
Sampling rate : 48.0 KHz
Bit depth : 16 bits
Compression mode : Lossy
Stream size : 135 MiB (9%)
Alignment : Split accross interleaves
Interleave, duration : 40 ms (1.00 video frame)
Interleave, preload duration : 500 ms

-

Скриншоты

Built with Flash Release

[Цитировать]



Показать сообщения:    

Текущее время: 09-Дек 08:42

Часовой пояс: UTC + 3


Вы не можете начинать темы
Вы не можете отвечать на сообщения
Вы не можете редактировать свои сообщения
Вы не можете удалять свои сообщения
Вы не можете голосовать в опросах
Вы не можете прикреплять файлы к сообщениям
Вы не можете скачивать файлы

!ВНИМАНИЕ!
Сайт не предоставляет электронные версии произведений, а занимается лишь коллекционированием и каталогизацией ссылок, присылаемых и публикуемых на форуме нашими читателями. Если вы являетесь правообладателем какого-либо представленного материала и не желаете, чтобы ссылка на него находилась в нашем каталоге, свяжитесь с нами, и мы незамедлительно удалим ее. Файлы для обмена на трекере предоставлены пользователями сайта, и администрация не несет ответственности за их содержание. Просьба не заливать файлы, защищенные авторскими правами, а также файлы нелегального содержания!