[ Сегодня идет свободное скачивание без начисления Download ]


Статистика раздачи
Нет
 
   
 
Top  
 
 
-Поймет лишь одинокий / Only the Lonely (1991) DVDRip- Русское название: Поймет лишь одинокий
Оригинальное название: Only the Lonely
Год выпуска: 1991
Страна: США
Слоган: «The Man, The Woman, The Mother.»
Жанр: Мелодрама, комедия--Режиссер: Крис Коламбус
Актеры: Джон Кэнди (Danny Muldoon), Морин О’Хара (Rose Muldoon), Элли Шиди (Theresa Luna), Кевин Данн (Patrick Muldoon), Майло О’Ши (Doyle), Берт Ремсен (Spats), Энтони Куинн (Nick Acropolis), Джеймс Белуши (Salvatore Buonarte), Джо Греко (Johnny Luna), Марвин Дж. МакИнтайр (Father Strapovic), Маколей Калкин (Billy Muldoon), Киран Калкин (Patrick Muldoon Jr.)-Описание фильма: Чикагскому полицейскому Дэнни Мулдуну минуло уже 38 лет, а он продолжает оставаться неженатым. Старый холостяк живет со своей мамой Розой и трогательно о ней заботится. Но однажды в местном Ирландском баре он знакомится с хорошенькой Терезой Луной. Дэнни влюбляется в девушку с первого взгляда. И она отвечает взаимностью. Только капризная мать Дэнни омрачает счастливые дни, выражая явное неудовольствие: её совсем не устраивает перспектива стать свекровью…- -Продолжительность: 01:40:47
Перевод: Многоголосый закадровый, авторский
Субтитры: отсутствуют--Качество видео: DVDRip
Видеокодек: MPEG-4 AVC/H.264
Битрейт видео: ~2082 Кбит/с
Размер кадра: [email protected]
Аудио 1: Русский: AC3; 192 Kbps; CBR; 2 ch - Михалёв
Аудио 2: Русский: AC3; 192 Kbps; CBR; 2 ch - Многоголосый
Аудио 3: Англ-ий: AC3; 192 Kbps; CBR; 2 ch-

MediaInfo:

General
Unique ID : 219000743299287226044783232752187887559 (0xA4C20249A680C7569DF684B3580C4FC7)
Complete name : D:\Poymet.lish.odinokiy.1991.(H.264).DVDRip.mkv
Format : Matroska
Format version : Version 2
File size : 1.87 GiB
Duration : 1h 40mn
Overall bit rate : 2 656 Kbps
Encoded date : UTC 2011-09-23 14:39:47
Writing application : mkvmerge v4.4.0 ('Die Wiederkehr') сборка от Dec 25 2010 23:32:50
Writing library : libebml v1.0.0 + libmatroska v1.0.0
Video
ID : 1
Format : AVC
Format/Info : Advanced Video Codec
Format profile : [email protected]
Format settings, CABAC : Yes
Format settings, ReFrames : 8 frames
Muxing mode : Header stripping
Codec ID : V_MPEG4/ISO/AVC
Duration : 1h 40mn
Bit rate : 2 082 Kbps
Width : 720 pixels
Height : 552 pixels
Display aspect ratio : 1.85:1
Frame rate mode : Constant
Frame rate : 25.000 fps
Color space : YUV
Chroma subsampling : 4:2:0
Bit depth : 8 bits
Scan type : Progressive
Bits/(Pixel*Frame) : 0.210
Stream size : 1.43 GiB (76%)
Writing library : x264 core 112 r1834 a51816a
Encoding settings : cabac=1 / ref=8 / deblock=1:-1:-1 / analyse=0x3:0x133 / me=umh / subme=10 / psy=1 / psy_rd=1.00:0.00 / mixed_ref=1 / me_range=48 / chroma_me=1 / trellis=2 / 8x8dct=1 / cqm=0 / deadzone=21,11 / fast_pskip=1 / chroma_qp_offset=-2 / threads=6 / sliced_threads=0 / nr=0 / decimate=1 / interlaced=0 / constrained_intra=0 / bframes=7 / b_pyramid=2 / b_adapt=2 / b_bias=0 / direct=3 / weightb=1 / open_gop=0 / weightp=1 / keyint=250 / keyint_min=25 / scenecut=40 / intra_refresh=0 / rc_lookahead=40 / rc=2pass / mbtree=1 / bitrate=2082 / ratetol=1.0 / qcomp=0.60 / qpmin=10 / qpmax=51 / qpstep=4 / cplxblur=20.0 / qblur=0.5 / ip_ratio=1.40 / aq=2:1.00
Default : Yes
Forced : No
Audio #1
ID : 2
Format : AC-3
Format/Info : Audio Coding 3
Mode extension : CM (complete main)
Format settings, Endianness : Big
Muxing mode : Header stripping
Codec ID : A_AC3
Duration : 1h 40mn
Bit rate mode : Constant
Bit rate : 192 Kbps
Channel(s) : 2 channels
Channel positions : Front: L R
Sampling rate : 48.0 KHz
Bit depth : 16 bits
Compression mode : Lossy
Stream size : 138 MiB (7%)
Default : Yes
Forced : No
Audio #2
ID : 3
Format : AC-3
Format/Info : Audio Coding 3
Mode extension : CM (complete main)
Format settings, Endianness : Big
Muxing mode : Header stripping
Codec ID : A_AC3
Duration : 1h 40mn
Bit rate mode : Constant
Bit rate : 192 Kbps
Channel(s) : 2 channels
Channel positions : Front: L R
Sampling rate : 48.0 KHz
Bit depth : 16 bits
Compression mode : Lossy
Stream size : 138 MiB (7%)
Default : No
Forced : No
Audio #3
ID : 4
Format : AC-3
Format/Info : Audio Coding 3
Format profile : Dolby Digital
Mode extension : CM (complete main)
Format settings, Endianness : Big
Muxing mode : Header stripping
Codec ID : A_AC3
Duration : 1h 40mn
Bit rate mode : Constant
Bit rate : 192 Kbps
Channel(s) : 2 channels
Channel positions : Front: L R
Sampling rate : 48.0 KHz
Bit depth : 16 bits
Compression mode : Lossy
Delay relative to video : 16ms
Stream size : 138 MiB (7%)
Default : No
Forced : No
-Скриншоты:
-Время раздачи: С 09:00 до 24:00

[Цитировать]



Показать сообщения:    

Текущее время: 06-Дек 11:20

Часовой пояс: UTC + 3


Вы не можете начинать темы
Вы не можете отвечать на сообщения
Вы не можете редактировать свои сообщения
Вы не можете удалять свои сообщения
Вы не можете голосовать в опросах
Вы не можете прикреплять файлы к сообщениям
Вы не можете скачивать файлы

!ВНИМАНИЕ!
Сайт не предоставляет электронные версии произведений, а занимается лишь коллекционированием и каталогизацией ссылок, присылаемых и публикуемых на форуме нашими читателями. Если вы являетесь правообладателем какого-либо представленного материала и не желаете, чтобы ссылка на него находилась в нашем каталоге, свяжитесь с нами, и мы незамедлительно удалим ее. Файлы для обмена на трекере предоставлены пользователями сайта, и администрация не несет ответственности за их содержание. Просьба не заливать файлы, защищенные авторскими правами, а также файлы нелегального содержания!