[ Сегодня идет свободное скачивание без начисления Download ]


Статистика раздачи
Нет
 
   
 
Top  
 
 
-The Jan Holberg Project - At Your Service (2013)- Год: 2013
Жанр: Melodic Hard Rock
Кодек: FLAC
Тип рипа: image+.cue
Битрейт: Lossless
Издатель (лейбл): Nordic Records
Продолжительность: 00:35:56
Трек лист:
01. Water’s Rising (4:03)
02. Battle For Your Heart (4:00)
03. Jealousy And Pride (5:10)
04. Outta My Face (3:42)
05. Shady Haze Of Grey (3:16)
06. Sensuality (3:36)
07. 21 Red (4:04)
08. When Push Comes To Shove (4:21)
09. I Still Remember (Instrumental) (3:20)
Состав:
Jan E. Holberg - Bass
Joe Lynn Turner - Vocals

Tony Carey - Vocals, Keyboards
Age Sten Nilsen (Wig Wam) - Vocals
Skalg Mikaelson Raaen - Guitar
Fridrik Karlsson - Guitar
Eythor Gunnarsson - Keyboards
Ranveig Seljemark - Backing Vocals
Gulli Briem - Drums
Engineered by: Tom Merlynn, Ole Petter Hansen chylie, Stein Bratland, Arnstein Fossvik
Mastered by: Finnur Hakonarson

Отчёт ЕАС:

Exact Audio Copy V1.0 beta 2 from 29. April 2011
EAC extraction logfile from 25. February 2013, 20:46
The Jan Holberg Project / At Your Service
Used drive  : HL-DT-STDVDRAM GH24LS70   Adapter: 1  ID: 1
Read mode               : Secure
Utilize accurate stream : Yes
Defeat audio cache      : Yes
Make use of C2 pointers : No
Read offset correction                      : 667
Overread into Lead-In and Lead-Out          : No
Fill up missing offset samples with silence : Yes
Delete leading and trailing silent blocks   : No
Null samples used in CRC calculations       : Yes
Used interface                              : Native Win32 interface for Win NT & 2000
Used output format              : User Defined Encoder
Selected bitrate                : 896 kBit/s
Quality                         : High
Add ID3 tag                     : No
Command line compressor         : C:\Program Files\Exact Audio Copy\FLAC\FLAC.EXE
Additional command line options :  -V -8 -T "Date=%year%" -T "Genre=%genre%" %source%
TOC of the extracted CD
     Track |   Start  |  Length  | Start sector | End sector
    ---------------------------------------------------------
        1  |  0:00.00 |  4:05.37 |         0    |    18411
        2  |  4:05.37 |  4:01.64 |     18412    |    36550
        3  |  8:07.26 |  5:13.69 |     36551    |    60094
        4  | 13:21.20 |  3:44.39 |     60095    |    76933
        5  | 17:05.59 |  3:17.73 |     76934    |    91781
        6  | 20:23.57 |  3:39.27 |     91782    |   108233
        7  | 24:03.09 |  4:07.39 |    108234    |   126797
        8  | 28:10.48 |  4:23.73 |    126798    |   146595
        9  | 32:34.46 |  3:21.02 |    146596    |   161672
Range status and errors
Selected range
     Filename E:\The Jan Holberg Project - At Your Service (2013)\At Your Service.wav
     Peak level 96.6 %
     Extraction speed 1.9 X
     Range quality 100.0 %
     Copy CRC CECA2A0A
     Copy OK
No errors occurred
AccurateRip summary
Track  1  not present in database
Track  2  not present in database
Track  3  not present in database
Track  4  not present in database
Track  5  not present in database
Track  6  not present in database
Track  7  not present in database
Track  8  not present in database
Track  9  not present in database
None of the tracks are present in the AccurateRip database
End of status report
==== Log checksum 7E3BE6E6BF52884E29B823426B09FE70CA2B74EF29E08AC352BA8EFE2BCEB88C ====

Отчёт auCDtect Task manager:

-----------------------
DON'T MODIFY THIS FILE
-----------------------
PERFORMER: auCDtect Task Manager, ver. 1.5.1RC3 build 1.5.1.4
Copyright (c) 2008-2010 y-soft. All rights reserved
http://y-soft.org
ANALYZER: auCDtect: CD records authenticity detector, version 0.8.2
Copyright (c) 2004 Oleg Berngardt. All rights reserved.
Copyright (c) 2004 Alexander Djourik. All rights reserved.
FILE: At Your Service.flac
  Size: 267991076 Hash: EEF5E4CA71E71F55265FB84F2E3FCA23 Accuracy: -m0
  Conclusion: CDDA 100%
  Signature: 9D1E1E1644197A89C905163CB8B93D19C96C25BB

Доп.информация:

Jan имеет степень бакалавра (с отличием) по классу Музыка в LIPA, где он учился в 1998-2001 годах. Он гастролировал и записывался с такими музыкантами, как Joe Lynn Turner (Rainbow, Deep Purple), Gulli Briem (Mezzoforte) и Eythor Gunnarsson (Mezzoforte). В 2011 году он выпустил свой первый сольный альбом под названием "Sense of Time". Альбом содержит 10 песен, написанных Jan, а лид-вокалистом выступает Joe Lynn Turner.Ну а теперь дождались и следующей работы!
Turner: "Я отлично провожу время, когда записываю вокал для песен Jan'a. Мне всегда интересно участвовать во всем, что обладает качеством!"
Моё мнение-альбом очень удачный,а так это или нет судить вам!
Время раздачи: с10:00 до 23:00

[Цитировать]



Показать сообщения:    

Текущее время: 10-Дек 04:14

Часовой пояс: UTC + 3


Вы не можете начинать темы
Вы не можете отвечать на сообщения
Вы не можете редактировать свои сообщения
Вы не можете удалять свои сообщения
Вы не можете голосовать в опросах
Вы не можете прикреплять файлы к сообщениям
Вы не можете скачивать файлы

!ВНИМАНИЕ!
Сайт не предоставляет электронные версии произведений, а занимается лишь коллекционированием и каталогизацией ссылок, присылаемых и публикуемых на форуме нашими читателями. Если вы являетесь правообладателем какого-либо представленного материала и не желаете, чтобы ссылка на него находилась в нашем каталоге, свяжитесь с нами, и мы незамедлительно удалим ее. Файлы для обмена на трекере предоставлены пользователями сайта, и администрация не несет ответственности за их содержание. Просьба не заливать файлы, защищенные авторскими правами, а также файлы нелегального содержания!