[ Сегодня идет свободное скачивание без начисления Download ]


Статистика раздачи
Нет
 
   
 
Top  
 
 
-Jimi Hendrix - People, Hell and Angels (2013)- Год: 2013
Жанр: Psychedelic Rock/ Blues Rock
Источник (релизер): Dead_News
Сканы: Фронт
Продолжительность: 00:52:48
Кодек: FLAC
Тип рипа: Tracks+.cue
Битрейт: Lossless-Трек лист:
01. Earth Blues (3:35)
02. Somewhere (4:06)
03. Hear My Train A Comin' (5:42)
04. Bleeding Heart (3:59)
05. Let Me Move You (6:51)
06. Izabella (3:44)
07. Easy Blues (5:58)
08. Crash Landing (4:15)
09. Inside Out (5:05)
10. Hey Gypsy Boy (3:40)
11. Mojo Man (4:08)
12. Villanova Junction Blues (1:45)
-Jimi Hendrix - People, Hell And Angels (2013) [MP3|320 kbps]-

Об альбоме

People, Hell & Angels — посмертный студийный альбом Джими Хендрикса, будет издан 5 марта 2013 года.
People, Hell & Angels включает в себя 12 ранее не издававшихся студийных записей, как новые версии уже известных песен, так и никогда не издававшиеся композиции.
Большинство записей взяты из сессий 1968 и 1969 гг. на Record Plant Studios в Нью-Йорке, остальные из сессий на Sound Centre, Hit Factory, Electric Lady Studios
Запись для People, Hell and Angels:
Трек 1 записан 19 декабря 1969 в Record Plant Studios
Трек 2 записан 13 марта 1968 в Sound Centre
Треки 3, 4, 12 записаны 21 мая 1969 в Record Plant Studios
Треки 5, 10 записаны 18 марта 1969 в Record Plant Studios
Треки 6 and 7 записаны 28 августа 1969 в Hit Factory
Трек 8 записан 24 апреля 1969 в Record Plant Studios
Трек 9 записан 11 июня 1968 в Record Plant Studios
Трек 10 записан 18 марта 1969 в Record Plant Studios
Трек 11 записан июнь/август 1970 в Electric Lady Studios
(с)fanDYNAMO

Содержимое индексной карты:

REM GENRE rock
REM DATE 2013
REM DISCID A30C600C
REM COMMENT "ExactAudioCopy v1.0b2"
CATALOG 0887654189820
PERFORMER "Jimi Hendrix"
TITLE "People, Hell and Angels"
FILE "01 Earth Blues.wav" WAVE
  TRACK 01 AUDIO
    TITLE "Earth Blues "
    PERFORMER "Jimi Hendrix"
    ISRC USQX91201902
    INDEX 01 00:00:00
  TRACK 02 AUDIO
    TITLE "Somewhere"
    PERFORMER "Jimi Hendrix"
    ISRC USQX91201903
    INDEX 00 03:33:70
FILE "02 Somewhere.wav" WAVE
    INDEX 01 00:00:00
  TRACK 03 AUDIO
    TITLE "Hear My Train A Comin' "
    PERFORMER "Jimi Hendrix"
    ISRC USQX91201904
    INDEX 00 04:05:57
FILE "03 Hear My Train A Comin'.wav" WAVE
    INDEX 01 00:00:00
  TRACK 04 AUDIO
    TITLE "Bleeding Heart"
    PERFORMER "Jimi Hendrix"
    ISRC USQX91201905
    INDEX 00 05:41:60
FILE "04 Bleeding Heart.wav" WAVE
    INDEX 01 00:00:00
  TRACK 05 AUDIO
    TITLE "Let Me Move You"
    PERFORMER "Jimi Hendrix"
    ISRC USQX91201906
    INDEX 00 03:58:23
FILE "05 Let Me Move You.wav" WAVE
    INDEX 01 00:00:00
  TRACK 06 AUDIO
    TITLE "Izabella "
    PERFORMER "Jimi Hendrix"
    ISRC USQX91201907
    INDEX 00 06:50:27
FILE "06 Izabella.wav" WAVE
    INDEX 01 00:00:00
  TRACK 07 AUDIO
    TITLE "Easy Blues "
    PERFORMER "Jimi Hendrix"
    ISRC USQX91201908
    INDEX 00 03:42:72
FILE "07 Easy Blues.wav" WAVE
    INDEX 01 00:00:00
  TRACK 08 AUDIO
    TITLE "Crash Landing "
    PERFORMER "Jimi Hendrix"
    ISRC USQX91201909
    INDEX 00 05:57:07
FILE "08 Crash Landing.wav" WAVE
    INDEX 01 00:00:00
  TRACK 09 AUDIO
    TITLE "Inside Out "
    PERFORMER "Jimi Hendrix"
    ISRC USQX91201910
    INDEX 00 04:14:66
FILE "09 Inside Out.wav" WAVE
    INDEX 01 00:00:00
  TRACK 10 AUDIO
    TITLE "Hey Gypsy Boy "
    PERFORMER "Jimi Hendrix"
    ISRC USQX91201911
    INDEX 00 05:03:73
FILE "10 Hey Gypsy Boy.wav" WAVE
    INDEX 01 00:00:00
  TRACK 11 AUDIO
    TITLE "Mojo Man "
    PERFORMER "Jimi Hendrix"
    ISRC USQX91201912
    INDEX 00 03:39:43
FILE "11 Mojo Man.wav" WAVE
    INDEX 01 00:00:00
  TRACK 12 AUDIO
    TITLE "Villanova Junction Blues "
    PERFORMER "Jimi Hendrix"
    ISRC USQX91201913
    INDEX 00 04:07:09
FILE "12 Villanova Junction Blues.wav" WAVE
    INDEX 01 00:00:00

Отчёт ЕАС:

Exact Audio Copy V1.0 beta 2 from 29. April 2011
EAC extraction logfile from 1. March 2013, 14:31
Jimi Hendrix / People, Hell and Angels
Used drive  : TSSTcorpCDDVDW SH-222BB   Adapter: 0  ID: 0
Read mode               : Secure
Utilize accurate stream : Yes
Defeat audio cache      : Yes
Make use of C2 pointers : No
Read offset correction                      : 6
Overread into Lead-In and Lead-Out          : No
Fill up missing offset samples with silence : Yes
Delete leading and trailing silent blocks   : No
Null samples used in CRC calculations       : Yes
Used interface                              : Native Win32 interface for Win NT & 2000
Gap handling                                : Appended to previous track
Used output format              : User Defined Encoder
Selected bitrate                : 1024 kBit/s
Quality                         : High
Add ID3 tag                     : No
Command line compressor         : C:\Program Files (x86)\Exact Audio Copy\Flac\flac.exe
Additional command line options : -8 -V -T "ARTIST=%artist%" -T "TITLE=%title%" -T "ALBUM=%albumtitle%" -T "DATE=%year%" -T "TRACKNUMBER=%tracknr%" -T "GENRE=%genre%" -T "PERFORMER=%albuminterpret%" -T "COMPOSER=%composer%" %haslyrics%--tag-from-file=LYRICS
TOC of the extracted CD
     Track |   Start  |  Length  | Start sector | End sector
    ---------------------------------------------------------
        1  |  0:00.00 |  3:34.40 |         0    |    16089
        2  |  3:34.40 |  4:06.31 |     16090    |    34570
        3  |  7:40.71 |  5:42.15 |     34571    |    60235
        4  | 13:23.11 |  3:59.08 |     60236    |    78168
        5  | 17:22.19 |  6:51.13 |     78169    |   109006
        6  | 24:13.32 |  3:43.53 |    109007    |   125784
        7  | 27:57.10 |  5:57.53 |    125785    |   152612
        8  | 33:54.63 |  4:15.32 |    152613    |   171769
        9  | 38:10.20 |  5:04.46 |    171770    |   194615
       10  | 43:14.66 |  3:40.27 |    194616    |   211142
       11  | 46:55.18 |  4:07.62 |    211143    |   229729
       12  | 51:03.05 |  1:44.73 |    229730    |   237602
Track  1
     Filename D:\_rips\01 Earth Blues.wav
     Pre-gap length  0:00:02.00
     Peak level 96.3 %
     Extraction speed 4.2 X
     Track quality 100.0 %
     Test CRC 44E5325D
     Copy CRC 44E5325D
     Track not present in AccurateRip database
     Copy OK
Track  2
     Filename D:\_rips\02 Somewhere.wav
     Pre-gap length  0:00:00.60
     Peak level 99.7 %
     Extraction speed 4.8 X
     Track quality 100.0 %
     Test CRC A9E92E43
     Copy CRC A9E92E43
     Track not present in AccurateRip database
     Copy OK
Track  3
     Filename D:\_rips\03 Hear My Train A Comin'.wav
     Pre-gap length  0:00:00.65
     Peak level 99.7 %
     Extraction speed 5.5 X
     Track quality 100.0 %
     Test CRC 30ACF12C
     Copy CRC 30ACF12C
     Track not present in AccurateRip database
     Copy OK
Track  4
     Filename D:\_rips\04 Bleeding Heart.wav
     Pre-gap length  0:00:00.40
     Peak level 96.0 %
     Extraction speed 5.8 X
     Track quality 100.0 %
     Test CRC CCB4E5FA
     Copy CRC CCB4E5FA
     Track not present in AccurateRip database
     Copy OK
Track  5
     Filename D:\_rips\05 Let Me Move You.wav
     Pre-gap length  0:00:00.80
     Peak level 95.7 %
     Extraction speed 6.6 X
     Track quality 100.0 %
     Test CRC 7DB450D6
     Copy CRC 7DB450D6
     Track not present in AccurateRip database
     Copy OK
Track  6
     Filename D:\_rips\06 Izabella.wav
     Pre-gap length  0:00:00.81
     Peak level 96.0 %
     Extraction speed 6.5 X
     Track quality 100.0 %
     Test CRC 11D46EAA
     Copy CRC 11D46EAA
     Track not present in AccurateRip database
     Copy OK
Track  7
     Filename D:\_rips\07 Easy Blues.wav
     Pre-gap length  0:00:00.74
     Peak level 97.5 %
     Extraction speed 7.4 X
     Track quality 100.0 %
     Test CRC 40C5C1BF
     Copy CRC 40C5C1BF
     Track not present in AccurateRip database
     Copy OK
Track  8
     Filename D:\_rips\08 Crash Landing.wav
     Pre-gap length  0:00:00.61
     Peak level 97.9 %
     Extraction speed 7.4 X
     Track quality 100.0 %
     Test CRC C51B29CA
     Copy CRC C51B29CA
     Track not present in AccurateRip database
     Copy OK
Track  9
     Filename D:\_rips\09 Inside Out.wav
     Pre-gap length  0:00:00.54
     Peak level 100.0 %
     Extraction speed 7.9 X
     Track quality 100.0 %
     Test CRC 34AB97E6
     Copy CRC 34AB97E6
     Track not present in AccurateRip database
     Copy OK
Track 10
     Filename D:\_rips\10 Hey Gypsy Boy.wav
     Pre-gap length  0:00:00.64
     Peak level 99.7 %
     Extraction speed 7.7 X
     Track quality 100.0 %
     Test CRC B4B2800C
     Copy CRC B4B2800C
     Track not present in AccurateRip database
     Copy OK
Track 11
     Filename D:\_rips\11 Mojo Man.wav
     Pre-gap length  0:00:00.78
     Peak level 96.2 %
     Extraction speed 8.1 X
     Track quality 100.0 %
     Test CRC 8B18FEFA
     Copy CRC 8B18FEFA
     Track not present in AccurateRip database
     Copy OK
Track 12
     Filename D:\_rips\12 Villanova Junction Blues.wav
     Pre-gap length  0:00:00.70
     Peak level 95.9 %
     Extraction speed 7.0 X
     Track quality 100.0 %
     Test CRC 9F5C1A11
     Copy CRC 9F5C1A11
     Track not present in AccurateRip database
     Copy OK
None of the tracks are present in the AccurateRip database
No errors occurred
End of status report
==== Log checksum 75AB2AD28D968516724D1330662DF96250AF543D49AA941917356932279A09CF ====

Отчёт auCDtect Task manager:

-----------------------
DON'T MODIFY THIS FILE
-----------------------
PERFORMER: auCDtect Task Manager, ver. 1.5.1RC6 build 1.5.1.7
Copyright (c) 2008-2010 y-soft. All rights reserved
http://y-soft.org
ANALYZER: auCDtect: CD records authenticity detector, version 0.8.2
Copyright (c) 2004 Oleg Berngardt. All rights reserved.
Copyright (c) 2004 Alexander Djourik. All rights reserved.
FILE: 12 Villanova Junction Blues.flac
  Size: 10308160 Hash: 237488F6D78ED290D7152313776E8BE8 Accuracy: -m0
  Conclusion: CDDA 100%
  Signature: 89AECCD948E5909865ECFC6E3592001AD30AE067
FILE: 11 Mojo Man.flac
  Size: 30712841 Hash: D6A0C8C4A5F9A39B541AEC1965979639 Accuracy: -m0
  Conclusion: CDDA 100%
  Signature: 54D20FC6067B009CFBD9BB7701C45AA7581AA1F5
FILE: 10 Hey Gypsy Boy.flac
  Size: 22273950 Hash: 3D0336FC333CF30671DBF70184AA2DFF Accuracy: -m0
  Conclusion: CDDA 100%
  Signature: 409443DE0AADD0F76E3B981798AFACE864FA1DAC
FILE: 09 Inside Out.flac
  Size: 39121043 Hash: CCAC4A7A0D2A90927E36B1C99A7F5FC6 Accuracy: -m0
  Conclusion: CDDA 100%
  Signature: 7F2C0736E30B1C1589B80D999B3D544F7C2F28DE
FILE: 08 Crash Landing.flac
  Size: 30308780 Hash: F35EB14BA7B6FB1ACE345D192D2AE36C Accuracy: -m0
  Conclusion: CDDA 100%
  Signature: 89A8243474F6CA792C2019BB07CD90EBCC44F04F
FILE: 07 Easy Blues.flac
  Size: 40902806 Hash: 2C98CD1B8E7EA99A9F89462177C70E88 Accuracy: -m0
  Conclusion: CDDA 99%
  Signature: E56D6D207D366C8B874C7703239F824CFB38C78C
FILE: 06 Izabella.flac
  Size: 25122724 Hash: 9D70907B9751721922C7B85103C238C8 Accuracy: -m0
  Conclusion: CDDA 100%
  Signature: 97D88ADD747ECB43163E0C996F593FFB1ACFFE1A
FILE: 05 Let Me Move You.flac
  Size: 47767490 Hash: 18526A29CF8419C558B2DB79C597A366 Accuracy: -m0
  Conclusion: CDDA 100%
  Signature: F4C65C1F09C296916D16FED6685D8A748AD0FD00
FILE: 04 Bleeding Heart.flac
  Size: 26147035 Hash: 8B63DB9A99E79140AD97C568B096BE0A Accuracy: -m0
  Conclusion: CDDA 100%
  Signature: 7D877A80F1A4B58B353ABAE873F9C321726B5B7C
FILE: 03 Hear My Train A Comin'.flac
  Size: 37617789 Hash: 85116B0E7887D5882DD364E9BCB844B4 Accuracy: -m0
  Conclusion: CDDA 100%
  Signature: 32DECC5ED364A5D0FEBFC632DB243931689EDE05
FILE: 02 Somewhere.flac
  Size: 26973666 Hash: 7DC76D99A11B68690AC48CA699EFF5E0 Accuracy: -m0
  Conclusion: CDDA 100%
  Signature: B50BDA22C65FB7CFF725CF6BCE99CE35386E7F49
FILE: 01 Earth Blues.flac
  Size: 24813271 Hash: 95F4E4A62932E0414A4D49BE213D09D0 Accuracy: -m0
  Conclusion: CDDA 100%
  Signature: C75AC90DE02E627BEBC28991244816E8806C4B55
Время раздачи: с 2:00 по 18:00 МСК

[Цитировать]



Показать сообщения:    

Текущее время: 05-Дек 01:33

Часовой пояс: UTC + 3


Вы не можете начинать темы
Вы не можете отвечать на сообщения
Вы не можете редактировать свои сообщения
Вы не можете удалять свои сообщения
Вы не можете голосовать в опросах
Вы не можете прикреплять файлы к сообщениям
Вы не можете скачивать файлы

!ВНИМАНИЕ!
Сайт не предоставляет электронные версии произведений, а занимается лишь коллекционированием и каталогизацией ссылок, присылаемых и публикуемых на форуме нашими читателями. Если вы являетесь правообладателем какого-либо представленного материала и не желаете, чтобы ссылка на него находилась в нашем каталоге, свяжитесь с нами, и мы незамедлительно удалим ее. Файлы для обмена на трекере предоставлены пользователями сайта, и администрация не несет ответственности за их содержание. Просьба не заливать файлы, защищенные авторскими правами, а также файлы нелегального содержания!