[ Сегодня идет свободное скачивание без начисления Download ]


Статистика раздачи
Нет
 
   
 
Top  
 
 
-Krokus - Dirty Dynamite (2013)- Год: 2013
Жанр: Hard Rock
Кодек: FLAC
Тип рипа: image+.cue
Битрейт: Lossless
Тип битрейта: CBR
Издатель (лейбл): Sony Music Columbia
Продолжительность: 00:45:07
Трек лист:
01. Hallelujah Rock n' Roll 03:25
02. Go Baby Go 03:34
03. Rattlesnake Rumble 03:45
04. Dirty Dynamite 03:47
05. Let The Good Times Roll 03:52
06. Help 04:25
07. Better Than Sex 04:13
08. Doeg Song 03:46
09. Yellow Mary 03:30
10. Bailout Blues 03:26
11. Live Ma Life 03:54
12. Hardrocking Man 03:08
Состав:
Line-Up:
Marc Storace - Vocals
Chris Von Rohr - Bass, Backing Vocals
Fernando Von Arb - Guitars, Backing Vocals
Mark Kohler - Guitars
Mandy Meyer - Guitars

Guests:
Mark Fox - Vocals
Tommy Heart - Vocals
Kosta Zafiriou - Drums

Отчёт ЕАС:

Exact Audio Copy V1.0 beta 3 from 29. August 2011
Отчёт EAC об извлечении, выполненном 22. февраля 2013, 18:38
Krokus / Dirty Dynamite
Дисковод: HL-DT-STDVDRAM GU40N   Adapter: 0  ID: 1
Режим чтения                 : Достоверность
Использование точного потока : Да
Отключение кэша аудио        : Да
Использование указателей C2  : Нет
Коррекция смещения при чтении                     : 103
Способность читать области Lead-in и Lead-out     : Нет
Заполнение пропущенных сэмплов тишиной            : Да
Удаление блоков с тишиной в начале и конце        : Нет
При вычислениях CRC использовались нулевые сэмплы : Да
Интерфейс                                         : Встроенный Win32-интерфейс для Win NT/2000
Выходной формат          : Пользовательский кодировщик
Выбранный битрейт        : 128 kBit/s
Качество                 : Высокий
Добавление ID3-тега      : Нет
Утилита сжатия           : C:\Program Files (x86)\Easy CD-DA Extractor\ezcddax.exe
Дополнительные параметры : -V -8 -T "Date=%year%" -T "Genre=%genre%" %source%
TOC извлечённого CD
     Трек |   Старт  | Длительность | Начальный сектор | Конечный сектор
    ---------------------------------------------------------------------
       1  |  0:00.00 |    3:25.67   |           0      |      15441
       2  |  3:25.67 |    3:36.27   |       15442      |      31668
       3  |  7:02.19 |    3:47.01   |       31669      |      48694
       4  | 10:49.20 |    3:49.36   |       48695      |      65905
       5  | 14:38.56 |    3:53.61   |       65906      |      83441
       6  | 18:32.42 |    4:25.67   |       83442      |     103383
       7  | 22:58.34 |    4:15.37   |      103384      |     122545
       8  | 27:13.71 |    3:46.23   |      122546      |     139518
       9  | 31:00.19 |    3:30.62   |      139519      |     155330
      10  | 34:31.06 |    3:28.67   |      155331      |     170997
      11  | 37:59.73 |    3:56.64   |      170998      |     188761
      12  | 41:56.62 |    3:10.26   |      188762      |     203037
Характеристики диапазона извлечения и сообщения об ошибках
Выбранный диапазон
     Имя файла C:\Users\workutagin\Desktop\Krokus - Dirty Dynamite.wav
     Пиковый уровень 99.9 %
     Скорость извлечения 2.0 X
     Качество диапазона 100.0 %
     CRC теста 3A45726C
     CRC копии 3A45726C
     Копирование... OK
Ошибок не произошло
Конец отчёта
==== Контрольная сумма отчёта F645533D75FD7963C0B546EA72C5DA3180CC5EE285FCAD92ECE10812E3433067 ====

Отчёт auCDtect Task manager:

-----------------------
DON'T MODIFY THIS FILE
-----------------------
PERFORMER: auCDtect Task Manager, ver. 1.5.1RC6 build 1.5.1.7
Copyright (c) 2008-2010 y-soft. All rights reserved
http://y-soft.org
ANALYZER: auCDtect: CD records authenticity detector, version 0.8.2
Copyright (c) 2004 Oleg Berngardt. All rights reserved.
Copyright (c) 2004 Alexander Djourik. All rights reserved.
FILE: Krokus - Dirty Dynamite.flac
  Size: 327718949 Hash: B2FD1C831FCF96EFE4529F4577BE374E Accuracy: -m0
  Conclusion: CDDA 99%
  Signature: F6F79AE3A1900170BDA555BFE1C4D74D6CFEEAAF

Содержание индексной карты (.CUE)

REM GENRE "Hard Rock"
REM DATE 2013
REM DISCID 8D0A930C
REM COMMENT "ExactAudioCopy v1.0b3"
CATALOG 0887654154521
PERFORMER "Krokus"
TITLE "Dirty Dynamite"
FILE "Krokus - Dirty Dynamite.flac" WAVE
  TRACK 01 AUDIO
    TITLE "Hallelujah Rock n' Roll"
    PERFORMER "Krokus"
    ISRC CH0011200343
    INDEX 01 00:00:00
  TRACK 02 AUDIO
    TITLE "Go Baby Go"
    PERFORMER "Krokus"
    ISRC CH0011200344
    INDEX 01 03:25:67
  TRACK 03 AUDIO
    TITLE "Rattlesnake Rumble"
    PERFORMER "Krokus"
    ISRC CH0011200345
    INDEX 00 07:00:35
    INDEX 01 07:02:19
  TRACK 04 AUDIO
    TITLE "Dirty Dynamite"
    PERFORMER "Krokus"
    ISRC CH0011200346
    INDEX 00 10:47:55
    INDEX 01 10:49:20
  TRACK 05 AUDIO
    TITLE "Let The Good Times Roll"
    PERFORMER "Krokus"
    ISRC CH0011200347
    INDEX 00 14:36:43
    INDEX 01 14:38:56
  TRACK 06 AUDIO
    TITLE "Help"
    PERFORMER "Krokus"
    ISRC CH0011200348
    INDEX 00 18:31:51
    INDEX 01 18:32:42
  TRACK 07 AUDIO
    TITLE "Better Than Sex"
    PERFORMER "Krokus"
    ISRC CH0011200349
    INDEX 01 22:58:34
  TRACK 08 AUDIO
    TITLE "Doeg Song"
    PERFORMER "Krokus"
    ISRC CH0011200350
    INDEX 00 27:12:18
    INDEX 01 27:13:71
  TRACK 09 AUDIO
    TITLE "Yellow Mary"
    PERFORMER "Krokus"
    ISRC CH0011200351
    INDEX 01 31:00:19
  TRACK 10 AUDIO
    TITLE "Bailout Blues"
    PERFORMER "Krokus"
    ISRC CH0011200352
    INDEX 01 34:31:06
  TRACK 11 AUDIO
    TITLE "Live Ma Life"
    PERFORMER "Krokus"
    ISRC CH0011200353
    INDEX 00 37:57:32
    INDEX 01 37:59:73
  TRACK 12 AUDIO
    TITLE "Hardrocking Man"
    PERFORMER "Krokus"
    ISRC CH0011200354
    INDEX 00 41:54:57
    INDEX 01 41:56:62
Время раздачи: с18:00 до 23:00

[Цитировать]



Показать сообщения:    

Текущее время: 24-Фев 20:14

Часовой пояс: UTC + 3


Вы не можете начинать темы
Вы не можете отвечать на сообщения
Вы не можете редактировать свои сообщения
Вы не можете удалять свои сообщения
Вы не можете голосовать в опросах
Вы не можете прикреплять файлы к сообщениям
Вы не можете скачивать файлы

!ВНИМАНИЕ!
Сайт не предоставляет электронные версии произведений, а занимается лишь коллекционированием и каталогизацией ссылок, присылаемых и публикуемых на форуме нашими читателями. Если вы являетесь правообладателем какого-либо представленного материала и не желаете, чтобы ссылка на него находилась в нашем каталоге, свяжитесь с нами, и мы незамедлительно удалим ее. Файлы для обмена на трекере предоставлены пользователями сайта, и администрация не несет ответственности за их содержание. Просьба не заливать файлы, защищенные авторскими правами, а также файлы нелегального содержания!