[ Сегодня идет свободное скачивание без начисления Download ]


Статистика раздачи
Нет
 
   
 
Top  
 
 
-Elvis Presley - Brilliant Elvis Collections (8CD Box Set) (2012)- Лейбл: Cath Clothes Records / Redeye Music Distribution
Каталог: CR201305
Год: 2012
Жанр: Rock & Roll, Country, Ballad
Продолжительность: 06:34:00
Кодек: FLAC
Битрейт: Lossless-17.12.2012 - выпущен ограниченным тиражом фирмой Cath Clothes Records
05.02.2013 - выпущен и распространяется Redeye Music Distribution
- Продолжительность: 01:34:26
Трек лист:
CD1
Продолжительность: 00:49:11
01. Blue Suede Shoes
02. That's Allright Mama
03. Good Rockin' Tonight
04. Jailhouse Rock
05. Long Tall Sally
06. Stuck On You
07. Tutti Frutti
08. Shake, Rattle And Roll
09. I Got Stung
10. Baby Let's Play House
11. Dirty, Dirty Feeling
12. In Your Arms
13. Rip It Up
14. Ready Teddy
15. Shoppin' Around
16. Got A Lot A Livin' To Do
17. Hound Dog
18. Judy
19. Dixieland Rock
20. Such A Night

CD2

Продолжительность: 00:45:14
01. Don't Be Cruel
02. Too Much
03. I'm Coming Home
04. All Shook Up
05. His Latest Flame
06. Hard Headed Woman
07. Make Me Know It
08. Wear My Ring Around Your Neck
09. I Need Your Love Tonight
10. My Baby Left Me
11. Party
12. Mean Woman Blues
13. A Big Hunk O' Love
14. Money Honey
15. One Night
16. Heartbreak Hotel
17. I Got A Woman
18. I Beg Of You
19. Little Sister
20. (You're So Square) Baby I Don't Care

CD1:

Exact Audio Copy V1.0 beta 3 from 29. August 2011
EAC extraction logfile from 19. February 2013, 10:55
Elvis Presley / Brilliant Elvis: Rock And Roll CD1
Used drive  : PLEXTOR BD-R  PX-B950SA   Adapter: 6  ID: 0
Read mode               : Secure
Utilize accurate stream : Yes
Defeat audio cache      : Yes
Make use of C2 pointers : No
Read offset correction                      : 6
Overread into Lead-In and Lead-Out          : No
Fill up missing offset samples with silence : Yes
Delete leading and trailing silent blocks   : No
Null samples used in CRC calculations       : Yes
Used interface                              : Native Win32 interface for Win NT & 2000
Used output format : Internal WAV Routines
Sample format      : 44.100 Hz; 16 Bit; Stereo
TOC of the extracted CD
     Track |   Start  |  Length  | Start sector | End sector
    ---------------------------------------------------------
        1  |  0:00.00 |  2:05.17 |         0    |     9391
        2  |  2:05.17 |  2:02.00 |      9392    |    18541
        3  |  4:07.17 |  2:18.36 |     18542    |    28927
        4  |  6:25.53 |  2:33.38 |     28928    |    40440
        5  |  8:59.16 |  1:58.20 |     40441    |    49310
        6  | 10:57.36 |  2:25.01 |     49311    |    60186
        7  | 13:22.37 |  2:03.32 |     60187    |    69443
        8  | 15:25.69 |  2:32.54 |     69444    |    80897
        9  | 17:58.48 |  1:53.52 |     80898    |    89424
       10  | 19:52.25 |  2:22.15 |     89425    |   100089
       11  | 22:14.40 |  1:39.50 |    100090    |   107564
       12  | 23:54.15 |  1:57.07 |    107565    |   116346
       13  | 25:51.22 |  1:57.13 |    116347    |   125134
       14  | 27:48.35 |  2:01.36 |    125135    |   134245
       15  | 29:49.71 |  2:28.53 |    134246    |   145398
       16  | 32:18.49 |  2:37.25 |    145399    |   157198
       17  | 34:55.74 |  2:21.46 |    157199    |   167819
       18  | 37:17.45 |  2:18.06 |    167820    |   178175
       19  | 39:35.51 |  1:52.57 |    178176    |   186632
       20  | 41:28.33 |  3:01.32 |    186633    |   200239
Range status and errors
Selected range
     Filename C:\Users\Meijin\Desktop\Lossless Galaxy Rip by ALLexxess\Elvis Presley\2013 Brilliant Elvis Collection (8CD Box Set Cath Clothes Records)\Brilliant Elvis Rock And Roll 2CD Set\CD1\Brilliant Elvis Rock And Roll CD1.wav
     Peak level 100.0 %
     Extraction speed 7.3 X
     Range quality 100.0 %
     Test CRC 859DC1B8
     Copy CRC 859DC1B8
     Copy OK
No errors occurred
AccurateRip summary
Track  1  not present in database
Track  2  not present in database
Track  3  not present in database
Track  4  not present in database
Track  5  not present in database
Track  6  not present in database
Track  7  not present in database
Track  8  not present in database
Track  9  not present in database
Track 10  not present in database
Track 11  not present in database
Track 12  not present in database
Track 13  not present in database
Track 14  not present in database
Track 15  not present in database
Track 16  not present in database
Track 17  not present in database
Track 18  not present in database
Track 19  not present in database
Track 20  not present in database
None of the tracks are present in the AccurateRip database
End of status report
==== Log checksum 9963F1CF49001B362168DF03C01DC4916F421B735138F0557E2BCDA9F969151E ====

CD2:

Exact Audio Copy V1.0 beta 3 from 29. August 2011
EAC extraction logfile from 19. February 2013, 10:19
Elvis Presley / Brilliant Elvis: Rock And Roll CD2
Used drive  : PLEXTOR BD-R  PX-B950SA   Adapter: 6  ID: 0
Read mode               : Secure
Utilize accurate stream : Yes
Defeat audio cache      : Yes
Make use of C2 pointers : No
Read offset correction                      : 6
Overread into Lead-In and Lead-Out          : No
Fill up missing offset samples with silence : Yes
Delete leading and trailing silent blocks   : No
Null samples used in CRC calculations       : Yes
Used interface                              : Native Win32 interface for Win NT & 2000
Used output format : Internal WAV Routines
Sample format      : 44.100 Hz; 16 Bit; Stereo
TOC of the extracted CD
     Track |   Start  |  Length  | Start sector | End sector
    ---------------------------------------------------------
        1  |  0:00.00 |  2:08.34 |         0    |     9633
        2  |  2:08.34 |  2:39.36 |      9634    |    21594
        3  |  4:47.70 |  2:27.72 |     21595    |    32691
        4  |  7:15.67 |  2:04.05 |     32692    |    41996
        5  |  9:19.72 |  2:13.18 |     41997    |    51989
        6  | 11:33.15 |  1:59.38 |     51990    |    60952
        7  | 13:32.53 |  2:05.69 |     60953    |    70396
        8  | 15:38.47 |  2:19.70 |     70397    |    80891
        9  | 17:58.42 |  2:10.28 |     80892    |    90669
       10  | 20:08.70 |  2:18.28 |     90670    |   101047
       11  | 22:27.23 |  1:34.25 |    101048    |   108122
       12  | 24:01.48 |  2:22.16 |    108123    |   118788
       13  | 26:23.64 |  2:19.15 |    118789    |   129228
       14  | 28:43.04 |  2:41.07 |    129229    |   141310
       15  | 31:24.11 |  2:37.73 |    141311    |   153158
       16  | 34:02.09 |  2:13.62 |    153159    |   163195
       17  | 36:15.71 |  2:30.24 |    163196    |   174469
       18  | 38:46.20 |  1:58.73 |    174470    |   183392
       19  | 40:45.18 |  2:37.35 |    183393    |   195202
       20  | 43:22.53 |  1:51.25 |    195203    |   203552
Range status and errors
Selected range
     Filename C:\Users\Meijin\Desktop\Lossless Galaxy Rip by ALLexxess\Elvis Presley\2013 Brilliant Elvis Collection (8CD Box Set Cath Clothes Records)\Brilliant Elvis Rock And Roll 2CD Set\CD2\Brilliant Elvis Rock And Roll CD2.wav
     Peak level 100.0 %
     Extraction speed 7.3 X
     Range quality 100.0 %
     Test CRC 0235905E
     Copy CRC 0235905E
     Copy OK
No errors occurred
AccurateRip summary
Track  1  not present in database
Track  2  not present in database
Track  3  not present in database
Track  4  not present in database
Track  5  not present in database
Track  6  not present in database
Track  7  not present in database
Track  8  not present in database
Track  9  not present in database
Track 10  not present in database
Track 11  not present in database
Track 12  not present in database
Track 13  not present in database
Track 14  not present in database
Track 15  not present in database
Track 16  not present in database
Track 17  not present in database
Track 18  not present in database
Track 19  not present in database
Track 20  not present in database
None of the tracks are present in the AccurateRip database
End of status report
==== Log checksum AE5C3F61DD0CC9F556BA80230119BDDDA6546242DC833D7708E7C3D8B494314E ====

CD1:

-----------------------
DON'T MODIFY THIS FILE
-----------------------
PERFORMER: auCDtect Task Manager, ver. 1.5.1RC4 build 1.5.1.5
Copyright (c) 2008-2010 y-soft. All rights reserved
http://y-soft.org
ANALYZER: auCDtect: CD records authenticity detector, version 0.8.2
Copyright (c) 2004 Oleg Berngardt. All rights reserved.
Copyright (c) 2004 Alexander Djourik. All rights reserved.
FILE: Brilliant Elvis Rock And Roll CD1.flac
  Size: 214197015 Hash: A54D7810474DD8C387278C4165C6C55E Accuracy: -m0
  Conclusion: CDDA 100%
  Signature: 89BAC32920BCAB0E87EE6F6A059D3E328336C0F3

CD2:

-----------------------
DON'T MODIFY THIS FILE
-----------------------
PERFORMER: auCDtect Task Manager, ver. 1.5.1RC4 build 1.5.1.5
Copyright (c) 2008-2010 y-soft. All rights reserved
http://y-soft.org
ANALYZER: auCDtect: CD records authenticity detector, version 0.8.2
Copyright (c) 2004 Oleg Berngardt. All rights reserved.
Copyright (c) 2004 Alexander Djourik. All rights reserved.
FILE: Brilliant Elvis Rock And Roll CD2.flac
  Size: 214831103 Hash: A86C85C2298FB43F585BAB67A9585D31 Accuracy: -m0
  Conclusion: CDDA 100%
  Signature: 71840847CE788B179D18642BB2E6C886292D8451

CD1:

REM GENRE "Rock & Roll"
REM DATE 2013
REM DISCID 1D0A6D14
REM COMMENT "ExactAudioCopy v1.0b3"
PERFORMER "Elvis Presley"
TITLE "Brilliant Elvis: Rock And Roll CD1"
FILE "Brilliant Elvis Rock And Roll CD1.flac" WAVE
  TRACK 01 AUDIO
    TITLE "Blue Suede Shoes"
    PERFORMER "Elvis Presley"
    FLAGS DCP
    INDEX 01 00:00:00
  TRACK 02 AUDIO
    TITLE "That's Allright Mama"
    PERFORMER "Elvis Presley"
    FLAGS DCP
    INDEX 00 02:03:17
    INDEX 01 02:05:17
  TRACK 03 AUDIO
    TITLE "Good Rockin' Tonight"
    PERFORMER "Elvis Presley"
    FLAGS DCP
    INDEX 00 04:05:17
    INDEX 01 04:07:17
  TRACK 04 AUDIO
    TITLE "Jailhouse Rock"
    PERFORMER "Elvis Presley"
    FLAGS DCP
    INDEX 00 06:23:53
    INDEX 01 06:25:53
  TRACK 05 AUDIO
    TITLE "Long Tall Sally"
    PERFORMER "Elvis Presley"
    FLAGS DCP
    INDEX 00 08:57:16
    INDEX 01 08:59:16
  TRACK 06 AUDIO
    TITLE "Stuck On You"
    PERFORMER "Elvis Presley"
    FLAGS DCP
    INDEX 00 10:55:36
    INDEX 01 10:57:36
  TRACK 07 AUDIO
    TITLE "Tutti Frutti"
    PERFORMER "Elvis Presley"
    FLAGS DCP
    INDEX 00 13:20:37
    INDEX 01 13:22:37
  TRACK 08 AUDIO
    TITLE "Shake, Rattle And Roll"
    PERFORMER "Elvis Presley"
    FLAGS DCP
    INDEX 00 15:23:69
    INDEX 01 15:25:69
  TRACK 09 AUDIO
    TITLE "I Got Stung"
    PERFORMER "Elvis Presley"
    FLAGS DCP
    INDEX 00 17:56:48
    INDEX 01 17:58:48
  TRACK 10 AUDIO
    TITLE "Baby Let's Play House"
    PERFORMER "Elvis Presley"
    FLAGS DCP
    INDEX 00 19:50:25
    INDEX 01 19:52:25
  TRACK 11 AUDIO
    TITLE "Dirty, Dirty Feeling"
    PERFORMER "Elvis Presley"
    FLAGS DCP
    INDEX 00 22:12:40
    INDEX 01 22:14:40
  TRACK 12 AUDIO
    TITLE "In Your Arms"
    PERFORMER "Elvis Presley"
    FLAGS DCP
    INDEX 00 23:52:15
    INDEX 01 23:54:15
  TRACK 13 AUDIO
    TITLE "Rip It Up"
    PERFORMER "Elvis Presley"
    FLAGS DCP
    INDEX 00 25:49:22
    INDEX 01 25:51:22
  TRACK 14 AUDIO
    TITLE "Ready Teddy"
    PERFORMER "Elvis Presley"
    FLAGS DCP
    INDEX 00 27:46:35
    INDEX 01 27:48:35
  TRACK 15 AUDIO
    TITLE "Shoppin' Around"
    PERFORMER "Elvis Presley"
    FLAGS DCP
    INDEX 00 29:47:71
    INDEX 01 29:49:71
  TRACK 16 AUDIO
    TITLE "Got A Lot A Livin' To Do"
    PERFORMER "Elvis Presley"
    FLAGS DCP
    INDEX 00 32:16:49
    INDEX 01 32:18:49
  TRACK 17 AUDIO
    TITLE "Hound Dog"
    PERFORMER "Elvis Presley"
    FLAGS DCP
    INDEX 00 34:53:74
    INDEX 01 34:55:74
  TRACK 18 AUDIO
    TITLE "Judy"
    PERFORMER "Elvis Presley"
    FLAGS DCP
    INDEX 00 37:15:45
    INDEX 01 37:17:45
  TRACK 19 AUDIO
    TITLE "Dixieland Rock"
    PERFORMER "Elvis Presley"
    FLAGS DCP
    INDEX 00 39:33:51
    INDEX 01 39:35:51
  TRACK 20 AUDIO
    TITLE "Such A Night"
    PERFORMER "Elvis Presley"
    FLAGS DCP
    INDEX 00 41:26:33
    INDEX 01 41:28:33

CD2:

REM GENRE "Rock & Roll"
REM DATE 2013
REM DISCID 0C0A9A14
REM COMMENT "ExactAudioCopy v1.0b3"
PERFORMER "Elvis Presley"
TITLE "Brilliant Elvis: Rock And Roll CD2"
FILE "Brilliant Elvis Rock And Roll CD2.flac" WAVE
  TRACK 01 AUDIO
    TITLE "Don't Be Cruel"
    PERFORMER "Elvis Presley"
    FLAGS DCP
    INDEX 01 00:00:00
  TRACK 02 AUDIO
    TITLE "Too Much"
    PERFORMER "Elvis Presley"
    FLAGS DCP
    INDEX 00 02:06:34
    INDEX 01 02:08:34
  TRACK 03 AUDIO
    TITLE "I'm Coming Home"
    PERFORMER "Elvis Presley"
    FLAGS DCP
    INDEX 00 04:45:70
    INDEX 01 04:47:70
  TRACK 04 AUDIO
    TITLE "All Shook Up"
    PERFORMER "Elvis Presley"
    FLAGS DCP
    INDEX 00 07:13:67
    INDEX 01 07:15:67
  TRACK 05 AUDIO
    TITLE "His Latest Flame"
    PERFORMER "Elvis Presley"
    FLAGS DCP
    INDEX 00 09:17:72
    INDEX 01 09:19:72
  TRACK 06 AUDIO
    TITLE "Hard Headed Woman"
    PERFORMER "Elvis Presley"
    FLAGS DCP
    INDEX 00 11:31:15
    INDEX 01 11:33:15
  TRACK 07 AUDIO
    TITLE "Make Me Know It"
    PERFORMER "Elvis Presley"
    FLAGS DCP
    INDEX 00 13:30:53
    INDEX 01 13:32:53
  TRACK 08 AUDIO
    TITLE "Wear My Ring Around Your Neck"
    PERFORMER "Elvis Presley"
    FLAGS DCP
    INDEX 00 15:36:47
    INDEX 01 15:38:47
  TRACK 09 AUDIO
    TITLE "I Need Your Love Tonight"
    PERFORMER "Elvis Presley"
    FLAGS DCP
    INDEX 00 17:56:42
    INDEX 01 17:58:42
  TRACK 10 AUDIO
    TITLE "My Baby Left Me"
    PERFORMER "Elvis Presley"
    FLAGS DCP
    INDEX 00 20:06:70
    INDEX 01 20:08:70
  TRACK 11 AUDIO
    TITLE "Party"
    PERFORMER "Elvis Presley"
    FLAGS DCP
    INDEX 00 22:25:23
    INDEX 01 22:27:23
  TRACK 12 AUDIO
    TITLE "Mean Woman Blues"
    PERFORMER "Elvis Presley"
    FLAGS DCP
    INDEX 00 23:59:48
    INDEX 01 24:01:48
  TRACK 13 AUDIO
    TITLE "A Big Hunk O' Love"
    PERFORMER "Elvis Presley"
    FLAGS DCP
    INDEX 00 26:21:64
    INDEX 01 26:23:64
  TRACK 14 AUDIO
    TITLE "Money Honey"
    PERFORMER "Elvis Presley"
    FLAGS DCP
    INDEX 00 28:41:04
    INDEX 01 28:43:04
  TRACK 15 AUDIO
    TITLE "One Night"
    PERFORMER "Elvis Presley"
    FLAGS DCP
    INDEX 00 31:22:11
    INDEX 01 31:24:11
  TRACK 16 AUDIO
    TITLE "Heartbreak Hotel"
    PERFORMER "Elvis Presley"
    FLAGS DCP
    INDEX 00 34:00:09
    INDEX 01 34:02:09
  TRACK 17 AUDIO
    TITLE "I Got A Woman"
    PERFORMER "Elvis Presley"
    FLAGS DCP
    INDEX 00 36:13:71
    INDEX 01 36:15:71
  TRACK 18 AUDIO
    TITLE "I Beg Of You"
    PERFORMER "Elvis Presley"
    FLAGS DCP
    INDEX 00 38:44:20
    INDEX 01 38:46:20
  TRACK 19 AUDIO
    TITLE "Little Sister"
    PERFORMER "Elvis Presley"
    FLAGS DCP
    INDEX 00 40:43:18
    INDEX 01 40:45:18
  TRACK 20 AUDIO
    TITLE "(You're So Square) Baby I Don't Care"
    PERFORMER "Elvis Presley"
    FLAGS DCP
    INDEX 00 43:20:53
    INDEX 01 43:22:53
Продолжительность: 01:48:07
Трек лист:
CD1
Продолжительность: 00:53:47
01. Are You Lonesome Tonight?
02. The Girl Of My Best Friend
03. Like A Baby
04. Working On The Building
05. Surrender
06. I Want You, I Need You, I Love You
07. There's Always Me
08. A Mess Of Blues
09. As Long As I Have You
10. Soldier Boy
11. Kiss Me Quick (Take 11)
12. True Love
13. I'm Gonna Walk Dem Golden Stairs
14. My Wish Came True
15. Fever
16. Swing Down Sweet Chariot
17. First In Line
18. I Feel So Bad
19. That's When Your Heartaches Begin
20. The Girl Next Door Went A' Walking

CD2

Продолжительность: 00:54:19
01. It's Now Or Never
02. Startin' Today
03. Playing For Keeps
04. Fame And Fortune
05. I Need You So
06. Joshua Fit The Battle
07. Don't
08. I Believe In The Man In The Sky
09. Give Me The Right
10. Reconsider Baby
11. Lawdy Miss Clawdy
12. Love Me
13. Milky White Way
14. I Will Be Home Again
15. In Your Arms
16. If We Never Meet Again
17. (There'll Be) Peace In The Valley (For Me)
18. Is It So Strange
19. His Hand In Mine
20. Sentimental Me

CD1:

Exact Audio Copy V1.0 beta 3 from 29. August 2011
EAC extraction logfile from 18. February 2013, 20:43
Elvis Presley / Brilliant Elvis: Love Songs & Gospel Favorites CD1
Used drive  : PLEXTOR BD-R  PX-B950SA   Adapter: 6  ID: 0
Read mode               : Secure
Utilize accurate stream : Yes
Defeat audio cache      : Yes
Make use of C2 pointers : No
Read offset correction                      : 6
Overread into Lead-In and Lead-Out          : No
Fill up missing offset samples with silence : Yes
Delete leading and trailing silent blocks   : No
Null samples used in CRC calculations       : Yes
Used interface                              : Native Win32 interface for Win NT & 2000
Used output format : Internal WAV Routines
Sample format      : 44.100 Hz; 16 Bit; Stereo
TOC of the extracted CD
     Track |   Start  |  Length  | Start sector | End sector
    ---------------------------------------------------------
        1  |  0:00.00 |  3:12.37 |         0    |    14436
        2  |  3:12.37 |  2:28.53 |     14437    |    25589
        3  |  5:41.15 |  2:45.17 |     25590    |    37981
        4  |  8:26.32 |  1:58.33 |     37982    |    46864
        5  | 10:24.65 |  1:59.55 |     46865    |    55844
        6  | 12:24.45 |  2:45.46 |     55845    |    68265
        7  | 15:10.16 |  2:23.05 |     68266    |    78995
        8  | 17:33.21 |  2:46.40 |     78996    |    91485
        9  | 20:19.61 |  1:56.63 |     91486    |   100248
       10  | 22:16.49 |  3:11.34 |    100249    |   114607
       11  | 25:28.08 |  2:59.58 |    114608    |   128090
       12  | 28:27.66 |  2:13.17 |    128091    |   138082
       13  | 30:41.08 |  1:57.27 |    138083    |   146884
       14  | 32:38.35 |  2:40.30 |    146885    |   158914
       15  | 35:18.65 |  3:39.04 |    158915    |   175343
       16  | 38:57.69 |  2:38.59 |    175344    |   187252
       17  | 41:36.53 |  3:27.39 |    187253    |   202816
       18  | 45:04.17 |  2:59.52 |    202817    |   216293
       19  | 48:03.69 |  3:28.25 |    216294    |   231918
       20  | 51:32.19 |  2:14.64 |    231919    |   242032
Range status and errors
Selected range
     Filename C:\Users\Meijin\Desktop\Lossless Galaxy Rip by ALLexxess\Elvis Presley\2013 Brilliant Elvis Collection (8CD Box Set Cath Clothes Records)\Brilliant Elvis Love Songs & Gospel Favorites 2CD Set\CD1\Brilliant Elvis Love Songs & Gospel Favorites C
     Peak level 100.0 %
     Extraction speed 7.6 X
     Range quality 100.0 %
     Test CRC 26280A16
     Copy CRC 26280A16
     Copy OK
No errors occurred
AccurateRip summary
Track  1  not present in database
Track  2  not present in database
Track  3  not present in database
Track  4  not present in database
Track  5  not present in database
Track  6  not present in database
Track  7  not present in database
Track  8  not present in database
Track  9  not present in database
Track 10  not present in database
Track 11  not present in database
Track 12  not present in database
Track 13  not present in database
Track 14  not present in database
Track 15  not present in database
Track 16  not present in database
Track 17  not present in database
Track 18  not present in database
Track 19  not present in database
Track 20  not present in database
None of the tracks are present in the AccurateRip database
End of status report
==== Log checksum E19DB13E384D45F08026A537728A04E52FFE3BFF8A970B252098BD7D3ACCFD68 ====

CD2:

Exact Audio Copy V1.0 beta 3 from 29. August 2011
EAC extraction logfile from 18. February 2013, 20:09
Elvis Presley / Brilliant Elvis: Love Songs & Gospel Favorites CD2
Used drive  : PLEXTOR BD-R  PX-B950SA   Adapter: 6  ID: 0
Read mode               : Secure
Utilize accurate stream : Yes
Defeat audio cache      : Yes
Make use of C2 pointers : No
Read offset correction                      : 6
Overread into Lead-In and Lead-Out          : No
Fill up missing offset samples with silence : Yes
Delete leading and trailing silent blocks   : No
Null samples used in CRC calculations       : Yes
Used interface                              : Native Win32 interface for Win NT & 2000
Used output format : Internal WAV Routines
Sample format      : 44.100 Hz; 16 Bit; Stereo
TOC of the extracted CD
     Track |   Start  |  Length  | Start sector | End sector
    ---------------------------------------------------------
        1  |  0:00.00 |  3:21.23 |         0    |    15097
        2  |  3:21.23 |  2:11.36 |     15098    |    24958
        3  |  5:32.59 |  2:56.48 |     24959    |    38206
        4  |  8:29.32 |  2:36.28 |     38207    |    49934
        5  | 11:05.60 |  2:45.15 |     49935    |    62324
        6  | 13:51.00 |  2:45.38 |     62325    |    74737
        7  | 16:36.38 |  2:54.66 |     74738    |    87853
        8  | 19:31.29 |  2:18.29 |     87854    |    98232
        9  | 21:49.58 |  2:40.44 |     98233    |   110276
       10  | 24:30.27 |  3:45.68 |    110277    |   127219
       11  | 28:16.20 |  2:13.38 |    127220    |   137232
       12  | 30:29.58 |  2:49.12 |    137233    |   149919
       13  | 33:18.70 |  2:20.33 |    149920    |   160452
       14  | 35:39.28 |  2:40.05 |    160453    |   172457
       15  | 38:19.33 |  1:57.07 |    172458    |   181239
       16  | 40:16.40 |  2:04.04 |    181240    |   190543
       17  | 42:20.44 |  3:27.64 |    190544    |   206132
       18  | 45:48.33 |  2:34.06 |    206133    |   217688
       19  | 48:22.39 |  3:22.10 |    217689    |   232848
       20  | 51:44.49 |  2:34.56 |    232849    |   244454
Range status and errors
Selected range
     Filename C:\Users\Meijin\Desktop\Lossless Galaxy Rip by ALLexxess\Elvis Presley\2013 Brilliant Elvis Collection (8CD Box Set Cath Clothes Records)\Brilliant Elvis Love Songs & Gospel Favorites 2CD Set\CD2\Brilliant Elvis Love Songs & Gospel Favorites C
     Peak level 100.0 %
     Extraction speed 7.7 X
     Range quality 100.0 %
     Test CRC E53FC5DA
     Copy CRC E53FC5DA
     Copy OK
No errors occurred
AccurateRip summary
Track  1  not present in database
Track  2  not present in database
Track  3  not present in database
Track  4  not present in database
Track  5  not present in database
Track  6  not present in database
Track  7  not present in database
Track  8  not present in database
Track  9  not present in database
Track 10  not present in database
Track 11  not present in database
Track 12  not present in database
Track 13  not present in database
Track 14  not present in database
Track 15  not present in database
Track 16  not present in database
Track 17  not present in database
Track 18  not present in database
Track 19  not present in database
Track 20  not present in database
None of the tracks are present in the AccurateRip database
End of status report
==== Log checksum 6DB585DCE660FE81B013923ADCD4A521E8B4C781C6E9B841479F9FBAD0AB52D7 ====

CD1:

-----------------------
DON'T MODIFY THIS FILE
-----------------------
PERFORMER: auCDtect Task Manager, ver. 1.5.1RC4 build 1.5.1.5
Copyright (c) 2008-2010 y-soft. All rights reserved
http://y-soft.org
ANALYZER: auCDtect: CD records authenticity detector, version 0.8.2
Copyright (c) 2004 Oleg Berngardt. All rights reserved.
Copyright (c) 2004 Alexander Djourik. All rights reserved.
FILE: Brilliant Elvis Love Songs & Gospel Favorites CD1.flac
  Size: 300357652 Hash: B27F5CBFC1AE87CE0858C28C13AC5E10 Accuracy: -m0
  Conclusion: CDDA 100%
  Signature: 898A74A5143B0F08A38448DA9122C75E9A9DF6EE

CD2:

-----------------------
DON'T MODIFY THIS FILE
-----------------------
PERFORMER: auCDtect Task Manager, ver. 1.5.1RC4 build 1.5.1.5
Copyright (c) 2008-2010 y-soft. All rights reserved
http://y-soft.org
ANALYZER: auCDtect: CD records authenticity detector, version 0.8.2
Copyright (c) 2004 Oleg Berngardt. All rights reserved.
Copyright (c) 2004 Alexander Djourik. All rights reserved.
FILE: Brilliant Elvis Love Songs & Gospel Favorites CD2.flac
  Size: 308865455 Hash: B42AD59C6B75A79738D9BB5F906A06FB Accuracy: -m0
  Conclusion: CDDA 100%
  Signature: A94D1E7DF504F9D31A4A8C817834A3E913537A66

CD1:

REM GENRE "Rock & Roll"
REM DATE 2013
REM DISCID 100C9B14
REM COMMENT "ExactAudioCopy v1.0b3"
PERFORMER "Elvis Presley"
TITLE "Brilliant Elvis: Love Songs & Gospel Favorites CD1"
FILE "Brilliant Elvis Love Songs & Gospel Favorites CD1.flac" WAVE
  TRACK 01 AUDIO
    TITLE "Are You Lonesome Tonight?"
    PERFORMER "Elvis Presley"
    FLAGS DCP
    INDEX 01 00:00:00
  TRACK 02 AUDIO
    TITLE "The Girl Of My Best Friend"
    PERFORMER "Elvis Presley"
    FLAGS DCP
    INDEX 00 03:10:37
    INDEX 01 03:12:37
  TRACK 03 AUDIO
    TITLE "Like A Baby"
    PERFORMER "Elvis Presley"
    FLAGS DCP
    INDEX 00 05:39:15
    INDEX 01 05:41:15
  TRACK 04 AUDIO
    TITLE "Working On The Building"
    PERFORMER "Elvis Presley"
    FLAGS DCP
    INDEX 00 08:24:32
    INDEX 01 08:26:32
  TRACK 05 AUDIO
    TITLE "Surrender"
    PERFORMER "Elvis Presley"
    FLAGS DCP
    INDEX 00 10:22:65
    INDEX 01 10:24:65
  TRACK 06 AUDIO
    TITLE "I Want You, I Need You, I Love You"
    PERFORMER "Elvis Presley"
    FLAGS DCP
    INDEX 00 12:22:45
    INDEX 01 12:24:45
  TRACK 07 AUDIO
    TITLE "There's Always Me"
    PERFORMER "Elvis Presley"
    FLAGS DCP
    INDEX 00 15:08:16
    INDEX 01 15:10:16
  TRACK 08 AUDIO
    TITLE "A Mess Of Blues"
    PERFORMER "Elvis Presley"
    FLAGS DCP
    INDEX 00 17:31:21
    INDEX 01 17:33:21
  TRACK 09 AUDIO
    TITLE "As Long As I Have You"
    PERFORMER "Elvis Presley"
    FLAGS DCP
    INDEX 00 20:17:61
    INDEX 01 20:19:61
  TRACK 10 AUDIO
    TITLE "Soldier Boy"
    PERFORMER "Elvis Presley"
    FLAGS DCP
    INDEX 00 22:14:49
    INDEX 01 22:16:49
  TRACK 11 AUDIO
    TITLE "Kiss Me Quick (Take 11)"
    PERFORMER "Elvis Presley"
    FLAGS DCP
    INDEX 00 25:26:08
    INDEX 01 25:28:08
  TRACK 12 AUDIO
    TITLE "True Love"
    PERFORMER "Elvis Presley"
    FLAGS DCP
    INDEX 00 28:25:66
    INDEX 01 28:27:66
  TRACK 13 AUDIO
    TITLE "I'm Gonna Walk Dem Golden Stairs"
    PERFORMER "Elvis Presley"
    FLAGS DCP
    INDEX 00 30:39:08
    INDEX 01 30:41:08
  TRACK 14 AUDIO
    TITLE "My Wish Came True"
    PERFORMER "Elvis Presley"
    FLAGS DCP
    INDEX 00 32:36:35
    INDEX 01 32:38:35
  TRACK 15 AUDIO
    TITLE "Fever"
    PERFORMER "Elvis Presley"
    FLAGS DCP
    INDEX 00 35:16:65
    INDEX 01 35:18:65
  TRACK 16 AUDIO
    TITLE "Swing Down Sweet Chariot"
    PERFORMER "Elvis Presley"
    FLAGS DCP
    INDEX 00 38:55:69
    INDEX 01 38:57:69
  TRACK 17 AUDIO
    TITLE "First In Line"
    PERFORMER "Elvis Presley"
    FLAGS DCP
    INDEX 00 41:34:53
    INDEX 01 41:36:53
  TRACK 18 AUDIO
    TITLE "I Feel So Bad"
    PERFORMER "Elvis Presley"
    FLAGS DCP
    INDEX 00 45:02:17
    INDEX 01 45:04:17
  TRACK 19 AUDIO
    TITLE "That's When Your Heartaches Begin"
    PERFORMER "Elvis Presley"
    FLAGS DCP
    INDEX 00 48:01:69
    INDEX 01 48:03:69
  TRACK 20 AUDIO
    TITLE "The Girl Next Door Went A' Walking"
    PERFORMER "Elvis Presley"
    FLAGS DCP
    INDEX 00 51:30:19
    INDEX 01 51:32:19

CD2:

REM GENRE "Rock & Roll"
REM DATE 2013
REM DISCID EB0CBB14
REM COMMENT "ExactAudioCopy v1.0b3"
PERFORMER "Elvis Presley"
TITLE "Brilliant Elvis: Love Songs & Gospel Favorites CD2"
FILE "Brilliant Elvis Love Songs & Gospel Favorites CD2.flac" WAVE
  TRACK 01 AUDIO
    TITLE "It's Now Or Never"
    PERFORMER "Elvis Presley"
    FLAGS DCP
    INDEX 01 00:00:00
  TRACK 02 AUDIO
    TITLE "Startin' Today"
    PERFORMER "Elvis Presley"
    FLAGS DCP
    INDEX 00 03:19:23
    INDEX 01 03:21:23
  TRACK 03 AUDIO
    TITLE "Playing For Keeps"
    PERFORMER "Elvis Presley"
    FLAGS DCP
    INDEX 00 05:30:59
    INDEX 01 05:32:59
  TRACK 04 AUDIO
    TITLE "Fame And Fortune"
    PERFORMER "Elvis Presley"
    FLAGS DCP
    INDEX 00 08:27:32
    INDEX 01 08:29:32
  TRACK 05 AUDIO
    TITLE "I Need You So"
    PERFORMER "Elvis Presley"
    FLAGS DCP
    INDEX 00 11:03:60
    INDEX 01 11:05:60
  TRACK 06 AUDIO
    TITLE "Joshua Fit The Battle"
    PERFORMER "Elvis Presley"
    FLAGS DCP
    INDEX 00 13:49:00
    INDEX 01 13:51:00
  TRACK 07 AUDIO
    TITLE "Don't"
    PERFORMER "Elvis Presley"
    FLAGS DCP
    INDEX 00 16:34:38
    INDEX 01 16:36:38
  TRACK 08 AUDIO
    TITLE "I Believe In The Man In The Sky"
    PERFORMER "Elvis Presley"
    FLAGS DCP
    INDEX 00 19:29:29
    INDEX 01 19:31:29
  TRACK 09 AUDIO
    TITLE "Give Me The Right"
    PERFORMER "Elvis Presley"
    FLAGS DCP
    INDEX 00 21:47:58
    INDEX 01 21:49:58
  TRACK 10 AUDIO
    TITLE "Reconsider Baby"
    PERFORMER "Elvis Presley"
    FLAGS DCP
    INDEX 00 24:28:27
    INDEX 01 24:30:27
  TRACK 11 AUDIO
    TITLE "Lawdy Miss Clawdy"
    PERFORMER "Elvis Presley"
    FLAGS DCP
    INDEX 00 28:14:20
    INDEX 01 28:16:20
  TRACK 12 AUDIO
    TITLE "Love Me"
    PERFORMER "Elvis Presley"
    FLAGS DCP
    INDEX 00 30:27:58
    INDEX 01 30:29:58
  TRACK 13 AUDIO
    TITLE "Milky White Way"
    PERFORMER "Elvis Presley"
    FLAGS DCP
    INDEX 00 33:16:70
    INDEX 01 33:18:70
  TRACK 14 AUDIO
    TITLE "I Will Be Home Again"
    PERFORMER "Elvis Presley"
    FLAGS DCP
    INDEX 00 35:37:28
    INDEX 01 35:39:28
  TRACK 15 AUDIO
    TITLE "In Your Arms"
    PERFORMER "Elvis Presley"
    FLAGS DCP
    INDEX 00 38:17:33
    INDEX 01 38:19:33
  TRACK 16 AUDIO
    TITLE "If We Never Meet Again"
    PERFORMER "Elvis Presley"
    FLAGS DCP
    INDEX 00 40:14:40
    INDEX 01 40:16:40
  TRACK 17 AUDIO
    TITLE "(There'll Be) Peace In The Valley (For Me)"
    PERFORMER "Elvis Presley"
    FLAGS DCP
    INDEX 00 42:18:44
    INDEX 01 42:20:44
  TRACK 18 AUDIO
    TITLE "Is It So Strange"
    PERFORMER "Elvis Presley"
    FLAGS DCP
    INDEX 00 45:46:33
    INDEX 01 45:48:33
  TRACK 19 AUDIO
    TITLE "His Hand In Mine"
    PERFORMER "Elvis Presley"
    FLAGS DCP
    INDEX 00 48:20:39
    INDEX 01 48:22:39
  TRACK 20 AUDIO
    TITLE "Sentimental Me"
    PERFORMER "Elvis Presley"
    FLAGS DCP
    INDEX 00 51:42:49
    INDEX 01 51:44:49
Продолжительность: 01:31:41
Трек лист:
CD1
Продолжительность: 00:44:37
01. (Let Me Be Your) Teddy Bear
02. Rock-A-Hula Baby
03. Hot Dog
04. New Orleans
05. Don't Leave Me Now
06. Trouble
07. G.I. Blues
08. I Want To Be Free
09. Pocketful Of Rainbows
10. Ito Eats
11. Love Me Tender
12. It Feels So Right
13. Hawaiian Wedding Song
14. Tonight Is So Right For Love
15. Crawfish
16. I Slipped, I Stumbled, I Fell
17. Loving You
18. Almost Always True
19. Frankfort Special
20. Ku-U-I-Po

CD2

Продолжительность: 00:47:03
01. Wooden Heart (Muss I Denn)
02. King Creole
03. Blue Hawai
04. Doin' The Best I Can
05. Treat Me Nice
06. Didja' Ever
07. Slicin' Sand
08. Young And Beautiful
09. Moonlight Swim
10. Blue Suede Shoes (Film Version)
11. Island Of Love
12. Don't Ask Me Why
13. No More (La Paloma)
14. Big Boots
15. Beach Boy Blues
16. What's She Really Like
17. Aloha Oe
18. Young Dreams
19. Hawaiian Sunset
20. Can't Help Falling In Love

CD1:

Exact Audio Copy V1.0 beta 3 from 29. August 2011
EAC extraction logfile from 18. February 2013, 21:49
Elvis Presley / Brilliant Elvis: Movis Songs CD1
Used drive  : PLEXTOR BD-R  PX-B950SA   Adapter: 6  ID: 0
Read mode               : Secure
Utilize accurate stream : Yes
Defeat audio cache      : Yes
Make use of C2 pointers : No
Read offset correction                      : 6
Overread into Lead-In and Lead-Out          : No
Fill up missing offset samples with silence : Yes
Delete leading and trailing silent blocks   : No
Null samples used in CRC calculations       : Yes
Used interface                              : Native Win32 interface for Win NT & 2000
Used output format : Internal WAV Routines
Sample format      : 44.100 Hz; 16 Bit; Stereo
TOC of the extracted CD
     Track |   Start  |  Length  | Start sector | End sector
    ---------------------------------------------------------
        1  |  0:00.00 |  1:51.54 |         0    |     8378
        2  |  1:51.54 |  2:03.74 |      8379    |    17677
        3  |  3:55.53 |  1:18.27 |     17678    |    23554
        4  |  5:14.05 |  2:02.43 |     23555    |    32747
        5  |  7:16.48 |  2:06.37 |     32748    |    42234
        6  |  9:23.10 |  2:20.72 |     42235    |    52806
        7  | 11:44.07 |  2:40.43 |     52807    |    64849
        8  | 14:24.50 |  2:17.01 |     64850    |    75125
        9  | 16:41.51 |  2:38.40 |     75126    |    87015
       10  | 19:20.16 |  1:28.03 |     87016    |    93618
       11  | 20:48.19 |  2:46.57 |     93619    |   106125
       12  | 23:35.01 |  2:13.10 |    106126    |   116110
       13  | 25:48.11 |  2:53.66 |    116111    |   129151
       14  | 28:42.02 |  2:16.34 |    129152    |   139385
       15  | 30:58.36 |  1:53.07 |    139386    |   147867
       16  | 32:51.43 |  1:39.51 |    147868    |   155343
       17  | 34:31.19 |  2:18.03 |    155344    |   165696
       18  | 36:49.22 |  2:25.31 |    165697    |   176602
       19  | 39:14.53 |  2:58.65 |    176603    |   190017
       20  | 42:13.43 |  2:23.51 |    190018    |   200793
Range status and errors
Selected range
     Filename C:\Users\Meijin\Desktop\Lossless Galaxy Rip by ALLexxess\Elvis Presley\2013 Brilliant Elvis Collection (8CD Box Set Cath Clothes Records)\Brilliant Elvis Movis Songs 2CD Set\CD1\Brilliant Elvis Movis Songs CD1.wav
     Peak level 100.0 %
     Extraction speed 7.1 X
     Range quality 99.9 %
     Test CRC 4308E85F
     Copy CRC 4308E85F
     Copy OK
No errors occurred
AccurateRip summary
Track  1  not present in database
Track  2  not present in database
Track  3  not present in database
Track  4  not present in database
Track  5  not present in database
Track  6  not present in database
Track  7  not present in database
Track  8  not present in database
Track  9  not present in database
Track 10  not present in database
Track 11  not present in database
Track 12  not present in database
Track 13  not present in database
Track 14  not present in database
Track 15  not present in database
Track 16  not present in database
Track 17  not present in database
Track 18  not present in database
Track 19  not present in database
Track 20  not present in database
None of the tracks are present in the AccurateRip database
End of status report
==== Log checksum 3047DC36CA079BFACED26B1730B36EAD1DC3D4B2C90F10DBAFBAC5B42620A13C ====

CD2:

Exact Audio Copy V1.0 beta 3 from 29. August 2011
EAC extraction logfile from 18. February 2013, 21:19
Elvis Presley / Brilliant Elvis: Movis Songs CD2
Used drive  : PLEXTOR BD-R  PX-B950SA   Adapter: 6  ID: 0
Read mode               : Secure
Utilize accurate stream : Yes
Defeat audio cache      : Yes
Make use of C2 pointers : No
Read offset correction                      : 6
Overread into Lead-In and Lead-Out          : No
Fill up missing offset samples with silence : Yes
Delete leading and trailing silent blocks   : No
Null samples used in CRC calculations       : Yes
Used interface                              : Native Win32 interface for Win NT & 2000
Used output format : Internal WAV Routines
Sample format      : 44.100 Hz; 16 Bit; Stereo
TOC of the extracted CD
     Track |   Start  |  Length  | Start sector | End sector
    ---------------------------------------------------------
        1  |  0:00.00 |  2:07.46 |         0    |     9570
        2  |  2:07.46 |  2:11.49 |      9571    |    19444
        3  |  4:19.20 |  2:40.09 |     19445    |    31453
        4  |  6:59.29 |  3:15.48 |     31454    |    46126
        5  | 10:15.02 |  2:15.24 |     46127    |    56275
        6  | 12:30.26 |  2:40.71 |     56276    |    68346
        7  | 15:11.22 |  1:40.04 |     68347    |    75850
        8  | 16:51.26 |  2:07.17 |     75851    |    85392
        9  | 18:58.43 |  2:23.16 |     85393    |    96133
       10  | 21:21.59 |  2:11.05 |     96134    |   105963
       11  | 23:32.64 |  2:43.57 |    105964    |   118245
       12  | 26:16.46 |  2:10.48 |    118246    |   128043
       13  | 28:27.19 |  2:26.63 |    128044    |   139056
       14  | 30:54.07 |  1:34.10 |    139057    |   146116
       15  | 32:28.17 |  2:07.50 |    146117    |   155691
       16  | 34:35.67 |  2:21.57 |    155692    |   166323
       17  | 36:57.49 |  1:57.52 |    166324    |   175150
       18  | 38:55.26 |  2:26.23 |    175151    |   186123
       19  | 41:21.49 |  2:38.03 |    186124    |   197976
       20  | 43:59.52 |  3:03.72 |    197977    |   211773
Range status and errors
Selected range
     Filename C:\Users\Meijin\Desktop\Lossless Galaxy Rip by ALLexxess\Elvis Presley\2013 Brilliant Elvis Collection (8CD Box Set Cath Clothes Records)\Brilliant Elvis Movis Songs 2CD Set\CD2\Brilliant Elvis Movis Songs CD2.wav
     Peak level 100.0 %
     Extraction speed 7.3 X
     Range quality 99.9 %
     Test CRC A2427C95
     Copy CRC A2427C95
     Copy OK
No errors occurred
AccurateRip summary
Track  1  not present in database
Track  2  not present in database
Track  3  not present in database
Track  4  not present in database
Track  5  not present in database
Track  6  not present in database
Track  7  not present in database
Track  8  not present in database
Track  9  not present in database
Track 10  not present in database
Track 11  not present in database
Track 12  not present in database
Track 13  not present in database
Track 14  not present in database
Track 15  not present in database
Track 16  not present in database
Track 17  not present in database
Track 18  not present in database
Track 19  not present in database
Track 20  not present in database
None of the tracks are present in the AccurateRip database
End of status report
==== Log checksum C4F252233F61D5442D4C679B1B7CD748858DFBBA51F02B715F8215F0BEB146E8 ====

CD1:

-----------------------
DON'T MODIFY THIS FILE
-----------------------
PERFORMER: auCDtect Task Manager, ver. 1.5.1RC4 build 1.5.1.5
Copyright (c) 2008-2010 y-soft. All rights reserved
http://y-soft.org
ANALYZER: auCDtect: CD records authenticity detector, version 0.8.2
Copyright (c) 2004 Oleg Berngardt. All rights reserved.
Copyright (c) 2004 Alexander Djourik. All rights reserved.
FILE: Brilliant Elvis Movie Songs CD1.flac
  Size: 236058564 Hash: 1004995092B3D60BAA1B2B776F8E5F10 Accuracy: -m0
  Conclusion: CDDA 100%
  Signature: 66CD4F10D5F3FC8ED464B4D62C403ADD79E1C451

CD2:

-----------------------
DON'T MODIFY THIS FILE
-----------------------
PERFORMER: auCDtect Task Manager, ver. 1.5.1RC4 build 1.5.1.5
Copyright (c) 2008-2010 y-soft. All rights reserved
http://y-soft.org
ANALYZER: auCDtect: CD records authenticity detector, version 0.8.2
Copyright (c) 2004 Oleg Berngardt. All rights reserved.
Copyright (c) 2004 Alexander Djourik. All rights reserved.
FILE: Brilliant Elvis Movie Songs CD2.flac
  Size: 264689293 Hash: FF947B147396893E62FF43648A1555D1 Accuracy: -m0
  Conclusion: CDDA 100%
  Signature: 38A7CAE35B84D1E74DCA1895A20EB84E7700EF9E

CD1:

REM GENRE "Rock & Roll"
REM DATE 2013
REM DISCID ED0A7514
REM COMMENT "ExactAudioCopy v1.0b3"
PERFORMER "Elvis Presley"
TITLE "Brilliant Elvis: Movie Songs CD1"
FILE "Brilliant Elvis Movie Songs CD1.flac" WAVE
  TRACK 01 AUDIO
    TITLE "(Let Me Be Your) Teddy Bear"
    PERFORMER "Elvis Presley"
    FLAGS DCP
    INDEX 01 00:00:00
  TRACK 02 AUDIO
    TITLE "Rock-A-Hula Baby"
    PERFORMER "Elvis Presley"
    FLAGS DCP
    INDEX 00 01:49:54
    INDEX 01 01:51:54
  TRACK 03 AUDIO
    TITLE "Hot Dog"
    PERFORMER "Elvis Presley"
    FLAGS DCP
    INDEX 00 03:53:53
    INDEX 01 03:55:53
  TRACK 04 AUDIO
    TITLE "New Orleans"
    PERFORMER "Elvis Presley"
    FLAGS DCP
    INDEX 00 05:12:05
    INDEX 01 05:14:05
  TRACK 05 AUDIO
    TITLE "Don't Leave Me Now"
    PERFORMER "Elvis Presley"
    FLAGS DCP
    INDEX 00 07:14:48
    INDEX 01 07:16:48
  TRACK 06 AUDIO
    TITLE "Trouble"
    PERFORMER "Elvis Presley"
    FLAGS DCP
    INDEX 00 09:21:10
    INDEX 01 09:23:10
  TRACK 07 AUDIO
    TITLE "G.I. Blues"
    PERFORMER "Elvis Presley"
    FLAGS DCP
    INDEX 00 11:42:07
    INDEX 01 11:44:07
  TRACK 08 AUDIO
    TITLE "I Want To Be Free"
    PERFORMER "Elvis Presley"
    FLAGS DCP
    INDEX 00 14:22:50
    INDEX 01 14:24:50
  TRACK 09 AUDIO
    TITLE "Pocketful Of Rainbows"
    PERFORMER "Elvis Presley"
    FLAGS DCP
    INDEX 00 16:39:51
    INDEX 01 16:41:51
  TRACK 10 AUDIO
    TITLE "Ito Eats"
    PERFORMER "Elvis Presley"
    FLAGS DCP
    INDEX 00 19:18:16
    INDEX 01 19:20:16
  TRACK 11 AUDIO
    TITLE "Love Me Tender"
    PERFORMER "Elvis Presley"
    FLAGS DCP
    INDEX 00 20:46:19
    INDEX 01 20:48:19
  TRACK 12 AUDIO
    TITLE "It Feels So Right"
    PERFORMER "Elvis Presley"
    FLAGS DCP
    INDEX 00 23:33:01
    INDEX 01 23:35:01
  TRACK 13 AUDIO
    TITLE "Hawaiian Wedding Song"
    PERFORMER "Elvis Presley"
    FLAGS DCP
    INDEX 00 25:46:11
    INDEX 01 25:48:11
  TRACK 14 AUDIO
    TITLE "Tonight Is So Right For Love"
    PERFORMER "Elvis Presley"
    FLAGS DCP
    INDEX 00 28:40:02
    INDEX 01 28:42:02
  TRACK 15 AUDIO
    TITLE "Crawfish"
    PERFORMER "Elvis Presley"
    FLAGS DCP
    INDEX 00 30:56:36
    INDEX 01 30:58:36
  TRACK 16 AUDIO
    TITLE "I Slipped, I Stumbled, I Fell"
    PERFORMER "Elvis Presley"
    FLAGS DCP
    INDEX 00 32:49:43
    INDEX 01 32:51:43
  TRACK 17 AUDIO
    TITLE "Loving You"
    PERFORMER "Elvis Presley"
    FLAGS DCP
    INDEX 00 34:29:19
    INDEX 01 34:31:19
  TRACK 18 AUDIO
    TITLE "Almost Always True"
    PERFORMER "Elvis Presley"
    FLAGS DCP
    INDEX 00 36:47:22
    INDEX 01 36:49:22
  TRACK 19 AUDIO
    TITLE "Frankfort Special"
    PERFORMER "Elvis Presley"
    FLAGS DCP
    INDEX 00 39:12:53
    INDEX 01 39:14:53
  TRACK 20 AUDIO
    TITLE "Ku-U-I-Po"
    PERFORMER "Elvis Presley"
    FLAGS DCP
    INDEX 00 42:11:43
    INDEX 01 42:13:43

CD2:

REM GENRE "Rock & Roll"
REM DATE 2013
REM DISCID FE0B0714
REM COMMENT "ExactAudioCopy v1.0b3"
PERFORMER "Elvis Presley"
TITLE "Brilliant Elvis: Movie Songs CD2"
FILE "Brilliant Elvis Movie Songs CD2.flac" WAVE
  TRACK 01 AUDIO
    TITLE "Wooden Heart (Muss I Denn)"
    PERFORMER "Elvis Presley"
    FLAGS DCP
    INDEX 01 00:00:00
  TRACK 02 AUDIO
    TITLE "King Creole"
    PERFORMER "Elvis Presley"
    FLAGS DCP
    INDEX 00 02:05:46
    INDEX 01 02:07:46
  TRACK 03 AUDIO
    TITLE "Blue Hawaii"
    PERFORMER "Elvis Presley"
    FLAGS DCP
    INDEX 00 04:17:20
    INDEX 01 04:19:20
  TRACK 04 AUDIO
    TITLE "Doin' The Best I Can"
    PERFORMER "Elvis Presley"
    FLAGS DCP
    INDEX 00 06:57:29
    INDEX 01 06:59:29
  TRACK 05 AUDIO
    TITLE "Treat Me Nice"
    PERFORMER "Elvis Presley"
    FLAGS DCP
    INDEX 00 10:13:02
    INDEX 01 10:15:02
  TRACK 06 AUDIO
    TITLE "Didja' Ever"
    PERFORMER "Elvis Presley"
    FLAGS DCP
    INDEX 00 12:28:26
    INDEX 01 12:30:26
  TRACK 07 AUDIO
    TITLE "Slicin' Sand"
    PERFORMER "Elvis Presley"
    FLAGS DCP
    INDEX 00 15:09:22
    INDEX 01 15:11:22
  TRACK 08 AUDIO
    TITLE "Young And Beautiful"
    PERFORMER "Elvis Presley"
    FLAGS DCP
    INDEX 00 16:49:26
    INDEX 01 16:51:26
  TRACK 09 AUDIO
    TITLE "Moonlight Swim"
    PERFORMER "Elvis Presley"
    FLAGS DCP
    INDEX 00 18:56:43
    INDEX 01 18:58:43
  TRACK 10 AUDIO
    TITLE "Blue Suede Shoes (Film Version)"
    PERFORMER "Elvis Presley"
    FLAGS DCP
    INDEX 00 21:19:59
    INDEX 01 21:21:59
  TRACK 11 AUDIO
    TITLE "Island Of Love"
    PERFORMER "Elvis Presley"
    FLAGS DCP
    INDEX 00 23:30:64
    INDEX 01 23:32:64
  TRACK 12 AUDIO
    TITLE "Don't Ask Me Why"
    PERFORMER "Elvis Presley"
    FLAGS DCP
    INDEX 00 26:14:46
    INDEX 01 26:16:46
  TRACK 13 AUDIO
    TITLE "No More (La Paloma)"
    PERFORMER "Elvis Presley"
    FLAGS DCP
    INDEX 00 28:25:19
    INDEX 01 28:27:19
  TRACK 14 AUDIO
    TITLE "Big Boots"
    PERFORMER "Elvis Presley"
    FLAGS DCP
    INDEX 00 30:52:07
    INDEX 01 30:54:07
  TRACK 15 AUDIO
    TITLE "Beach Boy Blues"
    PERFORMER "Elvis Presley"
    FLAGS DCP
    INDEX 00 32:26:17
    INDEX 01 32:28:17
  TRACK 16 AUDIO
    TITLE "What's She Really Like"
    PERFORMER "Elvis Presley"
    FLAGS DCP
    INDEX 00 34:33:67
    INDEX 01 34:35:67
  TRACK 17 AUDIO
    TITLE "Aloha Oe"
    PERFORMER "Elvis Presley"
    FLAGS DCP
    INDEX 00 36:55:49
    INDEX 01 36:57:49
  TRACK 18 AUDIO
    TITLE "Young Dreams"
    PERFORMER "Elvis Presley"
    FLAGS DCP
    INDEX 00 38:53:26
    INDEX 01 38:55:26
  TRACK 19 AUDIO
    TITLE "Hawaiian Sunset"
    PERFORMER "Elvis Presley"
    FLAGS DCP
    INDEX 00 41:19:49
    INDEX 01 41:21:49
  TRACK 20 AUDIO
    TITLE "Can't Help Falling In Love"
    PERFORMER "Elvis Presley"
    FLAGS DCP
    INDEX 00 43:57:52
    INDEX 01 43:59:52
Продолжительность: 01:39:45
Трек лист:
CD1
Продолжительность: 00:49:11
01. (Now And Then There's) A Fool Such As I
02. You're A Heartbreaker
03. Doncha' Think It's Time
04. I Forgot To Remember To Forget
05. Lonesome Cowboy
06. It's A Sin
07. I Gotta Know
08. I Was The One
09. So Glad You're Mine
10. I'm Counting On You
11. Just Because
12. Put The Blame On Me
13. Gently
14. Lover Doll
15. Anyway You Want Me
16. I Don't Care If The Sun Don't Shine
17. Blue Moon
18. I'm Left, You're Right, She's Gone
19. Let Me
20. Anything That's Part Of You (Take 3)

CD2

Продолжительность: 00:50:13
01. Mystery Train
02. I'll Never Let You Go (Little Darlin')
03. Blue Moon Of Kentucky
04. Blue Berry Hill
05. When My Blue Moon Turns To Gold Again
06. I'm Gonna Sit Right Down And Cry (Over You)
07. Wild In The Country
08. Lonely Man
09. Paralyzed
10. Old Shep
11. Milkcow Blues Boogie
12. Anyplace Is Paradise
13. We're Gonna Move
14. One Sided Love Affair
15. Poor Boy
16. How Do You Think I Feel
17. Hows The World Treating You
18. Have I Told You Lately That I Love You
19. Summer Kisses, Winter Tears
20. Flaming Star

CD1:

Exact Audio Copy V1.0 beta 3 from 29. August 2011
EAC extraction logfile from 17. February 2013, 21:04
Elvis Presley / Brilliant Elvis: Country CD1
Used drive  : PLEXTOR BD-R  PX-B950SA   Adapter: 6  ID: 0
Read mode               : Secure
Utilize accurate stream : Yes
Defeat audio cache      : Yes
Make use of C2 pointers : No
Read offset correction                      : 6
Overread into Lead-In and Lead-Out          : No
Fill up missing offset samples with silence : Yes
Delete leading and trailing silent blocks   : No
Null samples used in CRC calculations       : Yes
Used interface                              : Native Win32 interface for Win NT & 2000
Used output format : Internal WAV Routines
Sample format      : 44.100 Hz; 16 Bit; Stereo
TOC of the extracted CD
     Track |   Start  |  Length  | Start sector | End sector
    ---------------------------------------------------------
        1  |  0:00.00 |  2:40.71 |         0    |    12070
        2  |  2:40.71 |  2:15.28 |     12071    |    22223
        3  |  4:56.24 |  2:01.12 |     22224    |    31310
        4  |  6:57.36 |  2:33.11 |     31311    |    42796
        5  |  9:30.47 |  3:07.32 |     42797    |    56853
        6  | 12:38.04 |  2:45.58 |     56854    |    69286
        7  | 15:23.62 |  2:19.34 |     69287    |    79745
        8  | 17:43.21 |  2:34.23 |     79746    |    91318
        9  | 20:17.44 |  2:24.09 |     91319    |   102127
       10  | 22:41.53 |  2:26.58 |    102128    |   113135
       11  | 25:08.36 |  2:36.15 |    113136    |   124850
       12  | 27:44.51 |  2:00.22 |    124851    |   133872
       13  | 29:44.73 |  2:20.35 |    133873    |   144407
       14  | 32:05.33 |  2:17.07 |    144408    |   154689
       15  | 34:22.40 |  2:17.30 |    154690    |   164994
       16  | 36:39.70 |  2:34.31 |    164995    |   176575
       17  | 39:14.26 |  2:45.15 |    176576    |   188965
       18  | 41:59.41 |  2:40.04 |    188966    |   200969
       19  | 44:39.45 |  2:12.45 |    200970    |   210914
       20  | 46:52.15 |  2:18.03 |    210915    |   221267
Range status and errors
Selected range
     Filename C:\Users\Meijin\Desktop\Lossless Galaxy Rip by ALLexxess\Elvis Presley\2013 Brilliant Elvis Collection (8CD Box Set Cath Clothes Records)\Brilliant Elvis Country 2CD Set\CD1\Brilliant Elvis Country CD1.wav
     Peak level 100.0 %
     Extraction speed 7.4 X
     Range quality 100.0 %
     Test CRC D6894FA1
     Copy CRC D6894FA1
     Copy OK
No errors occurred
AccurateRip summary
Track  1  not present in database
Track  2  not present in database
Track  3  not present in database
Track  4  not present in database
Track  5  not present in database
Track  6  not present in database
Track  7  not present in database
Track  8  not present in database
Track  9  not present in database
Track 10  not present in database
Track 11  not present in database
Track 12  not present in database
Track 13  not present in database
Track 14  not present in database
Track 15  not present in database
Track 16  not present in database
Track 17  not present in database
Track 18  not present in database
Track 19  not present in database
Track 20  not present in database
None of the tracks are present in the AccurateRip database
End of status report
==== Log checksum 61CC44AAFD4CA5E936FBF9299B029D3514C30752F5ACFC98B09F216C876B11E3 ====

CD2:

Exact Audio Copy V1.0 beta 3 from 29. August 2011
EAC extraction logfile from 17. February 2013, 21:39
Elvis Presley / Brilliant Elvis: Country CD2
Used drive  : PLEXTOR BD-R  PX-B950SA   Adapter: 6  ID: 0
Read mode               : Secure
Utilize accurate stream : Yes
Defeat audio cache      : Yes
Make use of C2 pointers : No
Read offset correction                      : 6
Overread into Lead-In and Lead-Out          : No
Fill up missing offset samples with silence : Yes
Delete leading and trailing silent blocks   : No
Null samples used in CRC calculations       : Yes
Used interface                              : Native Win32 interface for Win NT & 2000
Used output format : Internal WAV Routines
Sample format      : 44.100 Hz; 16 Bit; Stereo
TOC of the extracted CD
     Track |   Start  |  Length  | Start sector | End sector
    ---------------------------------------------------------
        1  |  0:00.00 |  2:31.50 |         0    |    11374
        2  |  2:31.50 |  2:28.21 |     11375    |    22495
        3  |  4:59.71 |  2:06.40 |     22496    |    31985
        4  |  7:06.36 |  2:42.73 |     31986    |    44208
        5  |  9:49.34 |  2:24.48 |     44209    |    55056
        6  | 12:14.07 |  2:06.63 |     55057    |    64569
        7  | 14:20.70 |  1:57.53 |     64570    |    73397
        8  | 16:18.48 |  2:49.08 |     73398    |    86080
        9  | 19:07.56 |  2:27.71 |     86081    |    97176
       10  | 21:35.52 |  4:12.54 |     97177    |   116130
       11  | 25:48.31 |  2:40.31 |    116131    |   128161
       12  | 28:28.62 |  2:28.51 |    128162    |   139312
       13  | 30:57.38 |  2:33.32 |    139313    |   150819
       14  | 33:30.70 |  2:14.11 |    150820    |   160880
       15  | 35:45.06 |  2:17.38 |    160881    |   171193
       16  | 38:02.44 |  2:14.37 |    171194    |   181280
       17  | 40:17.06 |  2:28.20 |    181281    |   192400
       18  | 42:45.26 |  2:35.09 |    192401    |   204034
       19  | 45:20.35 |  2:22.72 |    204035    |   214756
       20  | 47:43.32 |  2:29.50 |    214757    |   225981
Range status and errors
Selected range
     Filename C:\Users\Meijin\Desktop\Lossless Galaxy Rip by ALLexxess\Elvis Presley\2013 Brilliant Elvis Collection (8CD Box Set Cath Clothes Records)\Brilliant Elvis Country 2CD Set\CD2\Brilliant Elvis Country CD2.wav
     Peak level 100.0 %
     Extraction speed 7.5 X
     Range quality 100.0 %
     Test CRC 13B453ED
     Copy CRC 13B453ED
     Copy OK
No errors occurred
AccurateRip summary
Track  1  not present in database
Track  2  not present in database
Track  3  not present in database
Track  4  not present in database
Track  5  not present in database
Track  6  not present in database
Track  7  not present in database
Track  8  not present in database
Track  9  not present in database
Track 10  not present in database
Track 11  not present in database
Track 12  not present in database
Track 13  not present in database
Track 14  not present in database
Track 15  not present in database
Track 16  not present in database
Track 17  not present in database
Track 18  not present in database
Track 19  not present in database
Track 20  not present in database
None of the tracks are present in the AccurateRip database
End of status report
==== Log checksum 23F72CE9987255BAB9B5E8992FF697310F58D61D88F2FDFF370887AB1DAE0A42 ====

CD1:

-----------------------
DON'T MODIFY THIS FILE
-----------------------
PERFORMER: auCDtect Task Manager, ver. 1.5.1RC4 build 1.5.1.5
Copyright (c) 2008-2010 y-soft. All rights reserved
http://y-soft.org
ANALYZER: auCDtect: CD records authenticity detector, version 0.8.2
Copyright (c) 2004 Oleg Berngardt. All rights reserved.
Copyright (c) 2004 Alexander Djourik. All rights reserved.
FILE: Brilliant Elvis Country CD1.flac
  Size: 210329945 Hash: 73AEBDF637FE1F7F0381DEE7A56781A7 Accuracy: -m0
  Conclusion: CDDA 100%
  Signature: 5E9EA2050E584C82211B0419C25C331AAC89E00F

CD2:

-----------------------
DON'T MODIFY THIS FILE
-----------------------
PERFORMER: auCDtect Task Manager, ver. 1.5.1RC4 build 1.5.1.5
Copyright (c) 2008-2010 y-soft. All rights reserved
http://y-soft.org
ANALYZER: auCDtect: CD records authenticity detector, version 0.8.2
Copyright (c) 2004 Oleg Berngardt. All rights reserved.
Copyright (c) 2004 Alexander Djourik. All rights reserved.
FILE: Brilliant Elvis Country CD2.flac
  Size: 217286933 Hash: C08BB687B4651BF609EE47B8419111E9 Accuracy: -m0
  Conclusion: CDDA 100%
  Signature: 0A4D810947FD50B0B4DEDD99EDDFDCD83F0F9324

CD1:

REM GENRE "Rock & Roll"
REM DATE 2013
REM DISCID 0C0B8614
REM COMMENT "ExactAudioCopy v1.0b3"
PERFORMER "Elvis Presley"
TITLE "Brilliant Elvis: Country CD1"
FILE "Brilliant Elvis Country CD1.flac" WAVE
  TRACK 01 AUDIO
    TITLE "(Now And Then There's) A Fool Such As I"
    PERFORMER "Elvis Presley"
    FLAGS DCP
    INDEX 01 00:00:00
  TRACK 02 AUDIO
    TITLE "You're A Heartbreaker"
    PERFORMER "Elvis Presley"
    FLAGS DCP
    INDEX 00 02:38:71
    INDEX 01 02:40:71
  TRACK 03 AUDIO
    TITLE "Doncha' Think It's Time"
    PERFORMER "Elvis Presley"
    FLAGS DCP
    INDEX 00 04:54:24
    INDEX 01 04:56:24
  TRACK 04 AUDIO
    TITLE "I Forgot To Remember To Forget"
    PERFORMER "Elvis Presley"
    FLAGS DCP
    INDEX 00 06:55:36
    INDEX 01 06:57:36
  TRACK 05 AUDIO
    TITLE "Lonesome Cowboy"
    PERFORMER "Elvis Presley"
    FLAGS DCP
    INDEX 00 09:28:47
    INDEX 01 09:30:47
  TRACK 06 AUDIO
    TITLE "It's A Sin"
    PERFORMER "Elvis Presley"
    FLAGS DCP
    INDEX 00 12:36:04
    INDEX 01 12:38:04
  TRACK 07 AUDIO
    TITLE "I Gotta Know"
    PERFORMER "Elvis Presley"
    FLAGS DCP
    INDEX 00 15:21:62
    INDEX 01 15:23:62
  TRACK 08 AUDIO
    TITLE "I Was The One"
    PERFORMER "Elvis Presley"
    FLAGS DCP
    INDEX 00 17:41:21
    INDEX 01 17:43:21
  TRACK 09 AUDIO
    TITLE "So Glad You're Mine"
    PERFORMER "Elvis Presley"
    FLAGS DCP
    INDEX 00 20:15:44
    INDEX 01 20:17:44
  TRACK 10 AUDIO
    TITLE "I'm Counting On You"
    PERFORMER "Elvis Presley"
    FLAGS DCP
    INDEX 00 22:39:53
    INDEX 01 22:41:53
  TRACK 11 AUDIO
    TITLE "Just Because"
    PERFORMER "Elvis Presley"
    FLAGS DCP
    INDEX 00 25:06:36
    INDEX 01 25:08:36
  TRACK 12 AUDIO
    TITLE "Put The Blame On Me"
    PERFORMER "Elvis Presley"
    FLAGS DCP
    INDEX 00 27:42:51
    INDEX 01 27:44:51
  TRACK 13 AUDIO
    TITLE "Gently"
    PERFORMER "Elvis Presley"
    FLAGS DCP
    INDEX 00 29:42:73
    INDEX 01 29:44:73
  TRACK 14 AUDIO
    TITLE "Lover Doll"
    PERFORMER "Elvis Presley"
    FLAGS DCP
    INDEX 00 32:03:33
    INDEX 01 32:05:33
  TRACK 15 AUDIO
    TITLE "Anyway You Want Me"
    PERFORMER "Elvis Presley"
    FLAGS DCP
    INDEX 00 34:20:40
    INDEX 01 34:22:40
  TRACK 16 AUDIO
    TITLE "I Don't Care If The Sun Don't Shine"
    PERFORMER "Elvis Presley"
    FLAGS DCP
    INDEX 00 36:37:70
    INDEX 01 36:39:70
  TRACK 17 AUDIO
    TITLE "Blue Moon"
    PERFORMER "Elvis Presley"
    FLAGS DCP
    INDEX 00 39:12:26
    INDEX 01 39:14:26
  TRACK 18 AUDIO
    TITLE "I'm Left, You're Right, She's Gone"
    PERFORMER "Elvis Presley"
    FLAGS DCP
    INDEX 00 41:57:41
    INDEX 01 41:59:41
  TRACK 19 AUDIO
    TITLE "Let Me"
    PERFORMER "Elvis Presley"
    FLAGS DCP
    INDEX 00 44:37:45
    INDEX 01 44:39:45
  TRACK 20 AUDIO
    TITLE "Anything That's Part Of You (Take 3)"
    PERFORMER "Elvis Presley"
    FLAGS DCP
    INDEX 00 46:50:15
    INDEX 01 46:52:15

CD2:

REM GENRE "Rock & Roll"
REM DATE 2013
REM DISCID 140BC514
REM COMMENT "ExactAudioCopy v1.0b3"
PERFORMER "Elvis Presley"
TITLE "Brilliant Elvis: Country CD2"
FILE "Brilliant Elvis Country CD2.flac" WAVE
  TRACK 01 AUDIO
    TITLE "Mystery Train"
    PERFORMER "Elvis Presley"
    FLAGS DCP
    INDEX 01 00:00:00
  TRACK 02 AUDIO
    TITLE "I'll Never Let You Go (Little Darlin')"
    PERFORMER "Elvis Presley"
    FLAGS DCP
    INDEX 00 02:29:50
    INDEX 01 02:31:50
  TRACK 03 AUDIO
    TITLE "Blue Moon Of Kentucky"
    PERFORMER "Elvis Presley"
    FLAGS DCP
    INDEX 00 04:57:71
    INDEX 01 04:59:71
  TRACK 04 AUDIO
    TITLE "Blue Berry Hill"
    PERFORMER "Elvis Presley"
    FLAGS DCP
    INDEX 00 07:04:36
    INDEX 01 07:06:36
  TRACK 05 AUDIO
    TITLE "When My Blue Moon Turns To Gold Again"
    PERFORMER "Elvis Presley"
    FLAGS DCP
    INDEX 00 09:47:34
    INDEX 01 09:49:34
  TRACK 06 AUDIO
    TITLE "I'm Gonna Sit Right Down And Cry (Over You)"
    PERFORMER "Elvis Presley"
    FLAGS DCP
    INDEX 00 12:12:07
    INDEX 01 12:14:07
  TRACK 07 AUDIO
    TITLE "Wild In The Country"
    PERFORMER "Elvis Presley"
    FLAGS DCP
    INDEX 00 14:18:70
    INDEX 01 14:20:70
  TRACK 08 AUDIO
    TITLE "Lonely Man"
    PERFORMER "Elvis Presley"
    FLAGS DCP
    INDEX 00 16:16:48
    INDEX 01 16:18:48
  TRACK 09 AUDIO
    TITLE "Paralyzed"
    PERFORMER "Elvis Presley"
    FLAGS DCP
    INDEX 00 19:05:56
    INDEX 01 19:07:56
  TRACK 10 AUDIO
    TITLE "Old Shep"
    PERFORMER "Elvis Presley"
    FLAGS DCP
    INDEX 00 21:33:52
    INDEX 01 21:35:52
  TRACK 11 AUDIO
    TITLE "Milkcow Blues Boogie"
    PERFORMER "Elvis Presley"
    FLAGS DCP
    INDEX 00 25:46:31
    INDEX 01 25:48:31
  TRACK 12 AUDIO
    TITLE "Anyplace Is Paradise"
    PERFORMER "Elvis Presley"
    FLAGS DCP
    INDEX 00 28:26:62
    INDEX 01 28:28:62
  TRACK 13 AUDIO
    TITLE "We're Gonna Move"
    PERFORMER "Elvis Presley"
    FLAGS DCP
    INDEX 00 30:55:38
    INDEX 01 30:57:38
  TRACK 14 AUDIO
    TITLE "One Sided Love Affair"
    PERFORMER "Elvis Presley"
    FLAGS DCP
    INDEX 00 33:28:70
    INDEX 01 33:30:70
  TRACK 15 AUDIO
    TITLE "Poor Boy"
    PERFORMER "Elvis Presley"
    FLAGS DCP
    INDEX 00 35:43:06
    INDEX 01 35:45:06
  TRACK 16 AUDIO
    TITLE "How Do You Think I Feel"
    PERFORMER "Elvis Presley"
    FLAGS DCP
    INDEX 00 38:00:44
    INDEX 01 38:02:44
  TRACK 17 AUDIO
    TITLE "Hows The World Treating You"
    PERFORMER "Elvis Presley"
    FLAGS DCP
    INDEX 00 40:15:06
    INDEX 01 40:17:06
  TRACK 18 AUDIO
    TITLE "Have I Told You Lately That I Love You"
    PERFORMER "Elvis Presley"
    FLAGS DCP
    INDEX 00 42:43:26
    INDEX 01 42:45:26
  TRACK 19 AUDIO
    TITLE "Summer Kisses, Winter Tears"
    PERFORMER "Elvis Presley"
    FLAGS DCP
    INDEX 00 45:18:35
    INDEX 01 45:20:35
  TRACK 20 AUDIO
    TITLE "Flaming Star"
    PERFORMER "Elvis Presley"
    FLAGS DCP
    INDEX 00 47:41:32
    INDEX 01 47:43:32
Спасибо ALLexxess
Время раздачи: С 20:00 до 08:00 Мск., до 5-ти скачавших

[Цитировать]



Показать сообщения:    

Текущее время: 06-Дек 19:05

Часовой пояс: UTC + 3


Вы не можете начинать темы
Вы не можете отвечать на сообщения
Вы не можете редактировать свои сообщения
Вы не можете удалять свои сообщения
Вы не можете голосовать в опросах
Вы не можете прикреплять файлы к сообщениям
Вы не можете скачивать файлы

!ВНИМАНИЕ!
Сайт не предоставляет электронные версии произведений, а занимается лишь коллекционированием и каталогизацией ссылок, присылаемых и публикуемых на форуме нашими читателями. Если вы являетесь правообладателем какого-либо представленного материала и не желаете, чтобы ссылка на него находилась в нашем каталоге, свяжитесь с нами, и мы незамедлительно удалим ее. Файлы для обмена на трекере предоставлены пользователями сайта, и администрация не несет ответственности за их содержание. Просьба не заливать файлы, защищенные авторскими правами, а также файлы нелегального содержания!