[ Сегодня идет свободное скачивание без начисления Download ]


Статистика раздачи
Нет
 
   
 
Top  
 
 
-SLADE - 12 Studio albums + 2 Compilations- Год: 1969 - 2007 (16 ? CD Collection, Re-issue 2006-2007, Re-mastered, Expanded Edition)
Издатель: Salvo|Union Square Music Ltd. Made in England.
Каталог: much
Жанр: Rock, Glam Rock
Продолжительность: 16:23:33
Кодек: WavPack
Битрейт: Lossless
Тип рипа: image +.cue +.log
Наличие сканов: есть
Rip by KoGGaN
Трек лист:
- (UK 2006 Union Square • SALVOCD001) Barcode : 6 98458 81012 0
Official DR value: DR7

Продолжительность: 01:17:11
Трек лист:-
Beginnings
01. Genesis [03:16]
02. Everybody's Next One [02:46]
03. Knocking Nails Into My House [02:25]
04. Roach Daddy [03:03]
05. Ain't Got No Heart [02:37]
06. Pity The Mother [03:57]
07. Mad Dog Cole [02:43]
08. Fly Me High [02:56]
09. If This World Were Mine [03:17]
10. Martha My Dear [02:20]
11. Born To Be Wild [03:24]
12. Journey To The Centre Of Your Mind [02:46]
Play It Loud
13. Raven [02:37]
14. See Us Here [03:12]
15. Dapple Rose [03:31]
16. Could I [02:45]
17. One Way Hotel [02:40]
18. The Shape Of Things To Come [02:18]
19. Know Who You Are [02:54]
20. I Remember [02:56]
21. Pouk Hill [02:24]
22. Angelina [02:50]
23. Dirty Joker [03:27]
24. Sweet Box [03:25]
Bonus tracks
25. Wild Winds Are Blowing (Single) [02:39]
26. Get Down And Get With It (Single) [03:50]

Отчёт ЕАС:

Exact Audio Copy V0.99 prebeta 5 from 4. May 2009
EAC extraction logfile from 16. May 2012, 21:04
SLADE / Beginnings & Play It Loud
Used drive  : ASUS    DRW-24B3ST   Adapter: 0  ID: 0
Read mode               : Secure
Utilize accurate stream : Yes
Defeat audio cache      : Yes
Make use of C2 pointers : No
Read offset correction                      : 6
Overread into Lead-In and Lead-Out          : No
Fill up missing offset samples with silence : Yes
Delete leading and trailing silent blocks   : No
Null samples used in CRC calculations       : Yes
Used interface                              : Native Win32 interface for Win NT & 2000
Used output format              : User Defined Encoder
Selected bitrate                : 1024 kBit/s
Quality                         : High
Add ID3 tag                     : No
Command line compressor         : C:\Program Files (x86)\EAC\WV\wavpack.exe
Additional command line options : -h -hh -m %s %d
TOC of the extracted CD
     Track |   Start  |  Length  | Start sector | End sector
    ---------------------------------------------------------
        1  |  0:00.00 |  3:16.46 |         0    |    14745
        2  |  3:16.46 |  2:46.13 |     14746    |    27208
        3  |  6:02.59 |  2:25.13 |     27209    |    38096
        4  |  8:27.72 |  3:03.70 |     38097    |    51891
        5  | 11:31.67 |  2:37.68 |     51892    |    63734
        6  | 14:09.60 |  3:57.59 |     63735    |    81568
        7  | 18:07.44 |  2:43.04 |     81569    |    93797
        8  | 20:50.48 |  2:56.42 |     93798    |   107039
        9  | 23:47.15 |  3:17.25 |    107040    |   121839
       10  | 27:04.40 |  2:20.12 |    121840    |   132351
       11  | 29:24.52 |  3:24.55 |    132352    |   147706
       12  | 32:49.32 |  2:46.52 |    147707    |   160208
       13  | 35:36.09 |  2:37.57 |    160209    |   172040
       14  | 38:13.66 |  3:12.60 |    172041    |   186500
       15  | 41:26.51 |  3:31.61 |    186501    |   202386
       16  | 44:58.37 |  2:45.59 |    202387    |   214820
       17  | 47:44.21 |  2:40.58 |    214821    |   226878
       18  | 50:25.04 |  2:18.58 |    226879    |   237286
       19  | 52:43.62 |  2:54.26 |    237287    |   250362
       20  | 55:38.13 |  2:56.32 |    250363    |   263594
       21  | 58:34.45 |  2:24.21 |    263595    |   274415
       22  | 60:58.66 |  2:50.30 |    274416    |   287195
       23  | 63:49.21 |  3:27.39 |    287196    |   302759
       24  | 67:16.60 |  3:25.24 |    302760    |   318158
       25  | 70:42.09 |  2:39.17 |    318159    |   330100
       26  | 73:21.26 |  3:50.13 |    330101    |   347363
Range status and errors
Selected range
     Filename G:\SLADE\1969-70- Beginnings & Play It Loud (UK 2006 Union Square • SALVOCD001)\SLADE - Beginnings & Play It Loud.wav
     Peak level 97.7 %
     Range quality 100.0 %
     Test CRC DA24FC11
     Copy CRC DA24FC11
     Copy OK
No errors occurred
AccurateRip summary
Track  1  accurately ripped (confidence 7)  [89D0FC11]
Track  2  accurately ripped (confidence 7)  [972F36D8]
Track  3  accurately ripped (confidence 7)  [D0B8E368]
Track  4  accurately ripped (confidence 7)  [4AB5B0E8]
Track  5  accurately ripped (confidence 7)  [67A909FC]
Track  6  accurately ripped (confidence 7)  [07A1CA86]
Track  7  accurately ripped (confidence 7)  [BD54A8EB]
Track  8  accurately ripped (confidence 7)  [66768935]
Track  9  accurately ripped (confidence 7)  [DF250C49]
Track 10  accurately ripped (confidence 8)  [4CE6ED96]
Track 11  accurately ripped (confidence 8)  [58B01F71]
Track 12  accurately ripped (confidence 7)  [13BBBB64]
Track 13  accurately ripped (confidence 7)  [EF7BC2F0]
Track 14  accurately ripped (confidence 7)  [0831F3C2]
Track 15  accurately ripped (confidence 7)  [1400FFAC]
Track 16  accurately ripped (confidence 7)  [8ED019A0]
Track 17  accurately ripped (confidence 7)  [DE88E3C6]
Track 18  accurately ripped (confidence 6)  [3A7BE7BD]
Track 19  accurately ripped (confidence 8)  [8D14BC4B]
Track 20  accurately ripped (confidence 7)  [092F94F3]
Track 21  accurately ripped (confidence 7)  [020A02FD]
Track 22  accurately ripped (confidence 7)  [CB9DA4B8]
Track 23  accurately ripped (confidence 7)  [7CDA3E39]
Track 24  accurately ripped (confidence 7)  [5944BDC2]
Track 25  accurately ripped (confidence 7)  [23AA946E]
Track 26  accurately ripped (confidence 5)  [7EE1B049]
All tracks accurately ripped
End of status report

Отчёт auCDtect Task manager:

-----------------------
DON'T MODIFY THIS FILE
-----------------------
PERFORMER: auCDtect Task Manager, ver. 1.5.1RC4 build 1.5.1.5
Copyright (c) 2008-2010 y-soft. All rights reserved
http://y-soft.org
ANALYZER: auCDtect: CD records authenticity detector, version 0.8.2
Copyright (c) 2004 Oleg Berngardt. All rights reserved.
Copyright (c) 2004 Alexander Djourik. All rights reserved.
FILE: SLADE - Beginnings & Play It Loud.wv
  Size: 519593052 Hash: 03A0EEB1FE21B6EF805CA5E0F6244681 Accuracy: -m0
  Conclusion: CDDA 99%
  Signature: 5C637B2E709CB4EAD2EBB95C68A2843E46D986F7
(UK 2006 Union Square • SALVOCD002) Barcode : 6 98458 81022 9
Official DR value: DR7

Продолжительность: 00:53:41
Трек лист:-01. How D'you Ride [03:11]
02. The Whole World's Goin' Crazee [03:36]
03. Look At Last Nite [03:06]
04. I Won't Let It 'Appen Again [03:16]
05. Move Over [03:45]
06. Gudbuy T'jane [03:32]
07. Gudbuy Gudbuy [03:28]
08. Mama Weer All Crazee Now [03:45]
09. I Don' Mind [03:06]
10. Let The Good Times Roll \ Feel So Fine [03:46]
Bonus tracks
11. My Life Is Natural [03:17]
12. Candidate [02:52]
13. Wonderin' Y [02:50]
14. Man Who Speaks Evil [03:17]
15. Slade Talk To 'Melanie Readers' (Flexi-Disc) [06:47]

Отчёт ЕАС:

Exact Audio Copy V0.99 prebeta 5 from 4. May 2009
EAC extraction logfile from 16. May 2012, 21:04
SLADE / Slayed (Salvo CD002)
Used drive  : ASUS    DRW-24B3ST   Adapter: 0  ID: 1
Read mode               : Secure
Utilize accurate stream : Yes
Defeat audio cache      : Yes
Make use of C2 pointers : No
Read offset correction                      : 6
Overread into Lead-In and Lead-Out          : No
Fill up missing offset samples with silence : Yes
Delete leading and trailing silent blocks   : No
Null samples used in CRC calculations       : Yes
Used interface                              : Native Win32 interface for Win NT & 2000
Used output format              : User Defined Encoder
Selected bitrate                : 1024 kBit/s
Quality                         : High
Add ID3 tag                     : No
Command line compressor         : C:\Program Files (x86)\EAC\WV\wavpack.exe
Additional command line options : -h -hh -m %s %d
TOC of the extracted CD
     Track |   Start  |  Length  | Start sector | End sector
    ---------------------------------------------------------
        1  |  0:00.00 |  3:11.39 |         0    |    14363
        2  |  3:11.39 |  3:36.16 |     14364    |    30579
        3  |  6:47.55 |  3:06.04 |     30580    |    44533
        4  |  9:53.59 |  3:16.63 |     44534    |    59296
        5  | 13:10.47 |  3:45.47 |     59297    |    76218
        6  | 16:56.19 |  3:32.72 |     76219    |    92190
        7  | 20:29.16 |  3:28.63 |     92191    |   107853
        8  | 23:58.04 |  3:45.00 |    107854    |   124728
        9  | 27:43.04 |  3:06.10 |    124729    |   138688
       10  | 30:49.14 |  3:46.44 |    138689    |   155682
       11  | 34:35.58 |  3:17.64 |    155683    |   170521
       12  | 37:53.47 |  2:52.52 |    170522    |   183473
       13  | 40:46.24 |  2:50.30 |    183474    |   196253
       14  | 43:36.54 |  3:17.73 |    196254    |   211101
       15  | 46:54.52 |  6:47.05 |    211102    |   241631
Range status and errors
Selected range
     Filename G:\SLADE\1972- Slayed (UK 2006 Union Square • SALVOCD002)\SLADE - Slayed (Salvo CD002).wav
     Peak level 97.7 %
     Range quality 100.0 %
     Test CRC 582CD350
     Copy CRC 582CD350
     Copy OK
No errors occurred
AccurateRip summary
Track  1  accurately ripped (confidence 31)  [648BC514]
Track  2  accurately ripped (confidence 31)  [719CFFAE]
Track  3  accurately ripped (confidence 31)  [E3F79DD8]
Track  4  accurately ripped (confidence 31)  [3E9AB93E]
Track  5  accurately ripped (confidence 29)  [889449C1]
Track  6  accurately ripped (confidence 31)  [4E057DCC]
Track  7  accurately ripped (confidence 30)  [ABB2EFAF]
Track  8  accurately ripped (confidence 30)  [687DD0A4]
Track  9  accurately ripped (confidence 30)  [3AB9CEE5]
Track 10  accurately ripped (confidence 30)  [6E18FDA6]
Track 11  accurately ripped (confidence 29)  [F1B0CE23]
Track 12  accurately ripped (confidence 29)  [96E704FB]
Track 13  accurately ripped (confidence 28)  [7E7FC3BD]
Track 14  accurately ripped (confidence 29)  [126E0850]
Track 15  accurately ripped (confidence 28)  [84F984E9]
All tracks accurately ripped
End of status report

Отчёт auCDtect Task manager:

-----------------------
DON'T MODIFY THIS FILE
-----------------------
PERFORMER: auCDtect Task Manager, ver. 1.5.1RC4 build 1.5.1.5
Copyright (c) 2008-2010 y-soft. All rights reserved
http://y-soft.org
ANALYZER: auCDtect: CD records authenticity detector, version 0.8.2
Copyright (c) 2004 Oleg Berngardt. All rights reserved.
Copyright (c) 2004 Alexander Djourik. All rights reserved.
FILE: SLADE - Slayed (Salvo CD002).wv
  Size: 387541638 Hash: B1735DC217935ED66DED27BD0C6B0CB7 Accuracy: -m0
  Conclusion: CDDA 100%
  Signature: AC44CA11CAC9EAC7A5A63D8B7C115ADB393E9AD2
(UK 2011 Union Square • SALVOCD053) Barcode : 6 98458 81532 3
Official DR value: DR6

Продолжительность: 00:57:41
Трек лист:-01. Cum on Feel the Noize [04:24]
02. Look Wot You Done [02:58]
03. Gudbuy T'Jane [03:32]
04. One Way Hotel [02:40]
05. Skweeze Me, Pleeze Me [04:29]
06. Pouk Hill [02:24]
07. The Shape of Things to Come [02:18]
08. Take Me Back 'Ome [03:15]
09. Coz I Luv You [03:25]
10. Wild Winds Are Blowin' [02:39]
11. Know Who You Are [02:54]
12. Get Down and Get With It (Get Done With It) [03:50]
13. Look at Last Nite [03:06]
14. Mama Weer All Crazee Now [03:45]
Bonus tracks
15. Hear Me Calling (studio version) [02:45]
16. My Friend Stan [02:41]
17. My Town [03:07]
18. Kill 'Em at the Hot Club Tonite [03:20]

Отчёт ЕАС:

Exact Audio Copy V0.99 prebeta 5 from 4. May 2009
EAC extraction logfile from 16. May 2012, 21:46
SLADE / Sladest (Salvo CD053)
Used drive  : ASUS    DRW-24B3ST   Adapter: 0  ID: 0
Read mode               : Secure
Utilize accurate stream : Yes
Defeat audio cache      : Yes
Make use of C2 pointers : No
Read offset correction                      : 6
Overread into Lead-In and Lead-Out          : No
Fill up missing offset samples with silence : Yes
Delete leading and trailing silent blocks   : No
Null samples used in CRC calculations       : Yes
Used interface                              : Native Win32 interface for Win NT & 2000
Used output format              : User Defined Encoder
Selected bitrate                : 1024 kBit/s
Quality                         : High
Add ID3 tag                     : No
Command line compressor         : C:\Program Files (x86)\EAC\WV\wavpack.exe
Additional command line options : -h -hh -m %s %d
TOC of the extracted CD
     Track |   Start  |  Length  | Start sector | End sector
    ---------------------------------------------------------
        1  |  0:00.00 |  4:24.66 |         0    |    19865
        2  |  4:24.66 |  2:58.07 |     19866    |    33222
        3  |  7:22.73 |  3:32.72 |     33223    |    49194
        4  | 10:55.70 |  2:40.58 |     49195    |    61252
        5  | 13:36.53 |  4:29.38 |     61253    |    81465
        6  | 18:06.16 |  2:24.21 |     81466    |    92286
        7  | 20:30.37 |  2:18.58 |     92287    |   102694
        8  | 22:49.20 |  3:15.73 |    102695    |   117392
        9  | 26:05.18 |  3:25.47 |    117393    |   132814
       10  | 29:30.65 |  2:39.03 |    132815    |   144742
       11  | 32:09.68 |  2:54.26 |    144743    |   157818
       12  | 35:04.19 |  3:50.13 |    157819    |   175081
       13  | 38:54.32 |  3:06.04 |    175082    |   189035
       14  | 42:00.36 |  3:45.00 |    189036    |   205910
       15  | 45:45.36 |  2:45.60 |    205911    |   218345
       16  | 48:31.21 |  2:41.71 |    218346    |   230491
       17  | 51:13.17 |  3:07.19 |    230492    |   244535
       18  | 54:20.36 |  3:20.47 |    244536    |   259582
Range status and errors
Selected range
     Filename G:\SLADE\1973- Sladest (UK 2011 Union Square • SALVOCD053)\SLADE - Sladest (Salvo CD053).wav
     Peak level 97.7 %
     Range quality 99.9 %
     Test CRC 05C3949E
     Copy CRC 05C3949E
     Copy OK
No errors occurred
AccurateRip summary
Track  1  cannot be verified as accurate (confidence 1)  [7CEE8967], AccurateRip returned [4D8D485C]
Track  2  cannot be verified as accurate (confidence 1)  [B2E68D2E], AccurateRip returned [061B1C4D]
Track  3  cannot be verified as accurate (confidence 1)  [C5C029D3], AccurateRip returned [F1E8BB51]
Track  4  cannot be verified as accurate (confidence 1)  [0F339AA9], AccurateRip returned [9F0F2FD6]
Track  5  cannot be verified as accurate (confidence 1)  [FDADBA38], AccurateRip returned [EB1A7449]
Track  6  cannot be verified as accurate (confidence 1)  [F0D00E9D], AccurateRip returned [CFE5D16B]
Track  7  cannot be verified as accurate (confidence 1)  [5089D44B], AccurateRip returned [2A9FF617]
Track  8  cannot be verified as accurate (confidence 1)  [AE9AB771], AccurateRip returned [D6076602]
Track  9  cannot be verified as accurate (confidence 1)  [FDE2D823], AccurateRip returned [D3C71980]
Track 10  cannot be verified as accurate (confidence 1)  [D99D9AE7], AccurateRip returned [C4D3F9E1]
Track 11  cannot be verified as accurate (confidence 1)  [53E58D42], AccurateRip returned [DAB0C0C4]
Track 12  cannot be verified as accurate (confidence 1)  [484BF264], AccurateRip returned [045B7020]
Track 13  cannot be verified as accurate (confidence 1)  [C1589CDF], AccurateRip returned [B44F5C39]
Track 14  cannot be verified as accurate (confidence 1)  [1ECC0A3F], AccurateRip returned [49C5743F]
Track 15  cannot be verified as accurate (confidence 1)  [23FC0C75], AccurateRip returned [C177541E]
Track 16  cannot be verified as accurate (confidence 1)  [034C57A2], AccurateRip returned [6D4C5FF2]
Track 17  cannot be verified as accurate (confidence 1)  [F51E3A9B], AccurateRip returned [F3D71AD1]
Track 18  cannot be verified as accurate (confidence 1)  [4C8588BB], AccurateRip returned [C5ABE099]
No tracks could be verified as accurate
You may have a different pressing from the one(s) in the database
End of status report

Отчёт auCDtect Task manager:

-----------------------
DON'T MODIFY THIS FILE
-----------------------
PERFORMER: auCDtect Task Manager, ver. 1.5.1RC4 build 1.5.1.5
Copyright (c) 2008-2010 y-soft. All rights reserved
http://y-soft.org
ANALYZER: auCDtect: CD records authenticity detector, version 0.8.2
Copyright (c) 2004 Oleg Berngardt. All rights reserved.
Copyright (c) 2004 Alexander Djourik. All rights reserved.
FILE: SLADE - Sladest (Salvo CD053).wv
  Size: 405298656 Hash: FC1DAECD8223CF3F05D12AA47C7359A5 Accuracy: -m0
  Conclusion: CDDA 100%
  Signature: ED653F885F068C09374AC932C3EE1BC0BBABF04B
(UK 2006 Union Square • SALVOCD003) Barcode : 6 98458 81032 8
Official DR value: DR6

Продолжительность: 00:57:40
Трек лист:-01. Just A Little Bit [04:01]
02. When The Lights Are Out [03:06]
03. My Town [03:07]
04. Find Yourself A Rainbow [02:11]
05. Miles Out To Sea [03:50]
06. We're Really Gonna Raise The Roof [03:10]
07. Do We Still Do It [03:02]
08. How Can It Be? [03:02]
09. Don't Blame Me [02:32]
10. My Friend Stan [02:41]
11. Everyday [03:11]
12. Good Time Gals [03:34]
Bonus tracks
13. I'm Mee I'm Now That's Orl [03:41]
14. Kill 'Em At The Hot Club Tonite [03:20]
15. The Bangin' Man [04:12]
16. She Did It To Me [03:19]
17. Slade To '19' Readers [05:34]

Отчёт ЕАС:

Exact Audio Copy V0.99 prebeta 5 from 4. May 2009
EAC extraction logfile from 16. May 2012, 21:46
SLADE / Old New Borrowed & Blue (Salvo CD003)
Used drive  : ASUS    DRW-24B3ST   Adapter: 0  ID: 1
Read mode               : Secure
Utilize accurate stream : Yes
Defeat audio cache      : Yes
Make use of C2 pointers : No
Read offset correction                      : 6
Overread into Lead-In and Lead-Out          : No
Fill up missing offset samples with silence : Yes
Delete leading and trailing silent blocks   : No
Null samples used in CRC calculations       : Yes
Used interface                              : Native Win32 interface for Win NT & 2000
Used output format              : User Defined Encoder
Selected bitrate                : 1024 kBit/s
Quality                         : High
Add ID3 tag                     : No
Command line compressor         : C:\Program Files (x86)\EAC\WV\wavpack.exe
Additional command line options : -h -hh -m %s %d
TOC of the extracted CD
     Track |   Start  |  Length  | Start sector | End sector
    ---------------------------------------------------------
        1  |  0:00.00 |  4:01.39 |         0    |    18113
        2  |  4:01.39 |  3:06.07 |     18114    |    32070
        3  |  7:07.46 |  3:07.19 |     32071    |    46114
        4  | 10:14.65 |  2:11.46 |     46115    |    55985
        5  | 12:26.36 |  3:50.07 |     55986    |    73242
        6  | 16:16.43 |  3:10.07 |     73243    |    87499
        7  | 19:26.50 |  3:02.34 |     87500    |   101183
        8  | 22:29.09 |  3:02.22 |    101184    |   114855
        9  | 25:31.31 |  2:32.74 |    114856    |   126329
       10  | 28:04.30 |  2:41.71 |    126330    |   138475
       11  | 30:46.26 |  3:11.33 |    138476    |   152833
       12  | 33:57.59 |  3:34.05 |    152834    |   168888
       13  | 37:31.64 |  3:41.41 |    168889    |   185504
       14  | 41:13.30 |  3:20.47 |    185505    |   200551
       15  | 44:34.02 |  4:12.02 |    200552    |   219453
       16  | 48:46.04 |  3:19.34 |    219454    |   234412
       17  | 52:05.38 |  5:34.54 |    234413    |   259516
Range status and errors
Selected range
     Filename G:\SLADE\1974- Old New Borrowed And Blue (UK 2006 Union Square • SALVOCD003)\SLADE - Old New Borrowed & Blue (Salvo CD003).wav
     Peak level 97.7 %
     Range quality 100.0 %
     Test CRC AC0507CB
     Copy CRC AC0507CB
     Copy OK
No errors occurred
AccurateRip summary
Track  1  accurately ripped (confidence 14)  [BFDCEC7D]
Track  2  accurately ripped (confidence 15)  [C01D7538]
Track  3  accurately ripped (confidence 14)  [3AF0F6D4]
Track  4  accurately ripped (confidence 15)  [AB77AB16]
Track  5  accurately ripped (confidence 15)  [034525BE]
Track  6  accurately ripped (confidence 14)  [22004461]
Track  7  accurately ripped (confidence 14)  [2C17EBA3]
Track  8  accurately ripped (confidence 15)  [94ABD2E7]
Track  9  accurately ripped (confidence 14)  [176767AC]
Track 10  accurately ripped (confidence 15)  [87E7FB20]
Track 11  accurately ripped (confidence 15)  [F29B1156]
Track 12  accurately ripped (confidence 14)  [E6251E23]
Track 13  accurately ripped (confidence 14)  [4C7FE771]
Track 14  accurately ripped (confidence 14)  [675BDB2D]
Track 15  accurately ripped (confidence 14)  [258C785D]
Track 16  accurately ripped (confidence 14)  [F282B973]
Track 17  accurately ripped (confidence 14)  [0E7C5E4C]
All tracks accurately ripped
End of status report

Отчёт auCDtect Task manager:

-----------------------
DON'T MODIFY THIS FILE
-----------------------
PERFORMER: auCDtect Task Manager, ver. 1.5.1RC4 build 1.5.1.5
Copyright (c) 2008-2010 y-soft. All rights reserved
http://y-soft.org
ANALYZER: auCDtect: CD records authenticity detector, version 0.8.2
Copyright (c) 2004 Oleg Berngardt. All rights reserved.
Copyright (c) 2004 Alexander Djourik. All rights reserved.
FILE: SLADE - Old New Borrowed & Blue (Salvo CD003).wv
  Size: 413882246 Hash: 65729B46579B94D4C9412EE81C8C3B16 Accuracy: -m0
  Conclusion: CDDA 100%
  Signature: 4B5D815C4769A2784AB7970D8543D06443E51590
(UK 2007 Union Square • SALVOCD004) Barcode : 6 98458 81042 7
Official DR value: DR7

Продолжительность: 00:43:13
Трек лист:-01. How Does It Feel [05:55]
02. Them Kinda Monkeys Can't Swing [03:28]
03. So Far So Good [03:02]
04. Summer Song (Wishing You Were Here) [03:36]
05. O. K. Yesterday Was Yesterday [03:59]
06. Far Far Away [03:37]
07. This Girl [03:32]
08. Lay It Down [04:09]
09. Heaven Knows [03:56]
10. Standin' On The Corner [04:54]

Отчёт ЕАС:

Exact Audio Copy V0.99 prebeta 5 from 4. May 2009
EAC extraction logfile from 16. May 2012, 22:21
SLADE / Slade In Flame (Salvo CD004)
Used drive  : ASUS    DRW-24B3ST   Adapter: 0  ID: 1
Read mode               : Secure
Utilize accurate stream : Yes
Defeat audio cache      : Yes
Make use of C2 pointers : No
Read offset correction                      : 6
Overread into Lead-In and Lead-Out          : No
Fill up missing offset samples with silence : Yes
Delete leading and trailing silent blocks   : No
Null samples used in CRC calculations       : Yes
Used interface                              : Native Win32 interface for Win NT & 2000
Used output format              : User Defined Encoder
Selected bitrate                : 1024 kBit/s
Quality                         : High
Add ID3 tag                     : No
Command line compressor         : C:\Program Files (x86)\EAC\WV\wavpack.exe
Additional command line options : -h -hh -m %s %d
TOC of the extracted CD
     Track |   Start  |  Length  | Start sector | End sector
    ---------------------------------------------------------
        1  |  0:00.00 |  5:55.28 |         0    |    26652
        2  |  5:55.28 |  3:28.04 |     26653    |    42256
        3  |  9:23.32 |  3:02.66 |     42257    |    55972
        4  | 12:26.23 |  3:36.63 |     55973    |    72235
        5  | 16:03.11 |  3:59.24 |     72236    |    90184
        6  | 20:02.35 |  3:37.68 |     90185    |   106527
        7  | 23:40.28 |  3:32.53 |    106528    |   122480
        8  | 27:13.06 |  4:09.45 |    122481    |   141200
        9  | 31:22.51 |  3:56.07 |    141201    |   158907
       10  | 35:18.58 |  4:54.73 |    158908    |   181030
Range status and errors
Selected range
     Filename G:\SLADE\1974- Slade In Flame (UK 2007 Union Square • SALVOCD004)\SLADE - Slade In Flame (Salvo CD004).wav
     Peak level 97.7 %
     Range quality 99.9 %
     Test CRC 69DA5792
     Copy CRC 69DA5792
     Copy OK
No errors occurred
AccurateRip summary
Track  1  accurately ripped (confidence 9)  [346B0A3F]
Track  2  accurately ripped (confidence 9)  [EF370D8E]
Track  3  accurately ripped (confidence 8)  [E397C083]
Track  4  accurately ripped (confidence 9)  [3BF94F7D]
Track  5  accurately ripped (confidence 8)  [C133F81F]
Track  6  accurately ripped (confidence 9)  [496F2233]
Track  7  accurately ripped (confidence 8)  [520A4D1F]
Track  8  accurately ripped (confidence 8)  [6D537B82]
Track  9  accurately ripped (confidence 8)  [CB254E85]
Track 10  accurately ripped (confidence 6)  [D8CC0E1C]
All tracks accurately ripped
End of status report

Отчёт auCDtect Task manager:

-----------------------
DON'T MODIFY THIS FILE
-----------------------
PERFORMER: auCDtect Task Manager, ver. 1.5.1RC4 build 1.5.1.5
Copyright (c) 2008-2010 y-soft. All rights reserved
http://y-soft.org
ANALYZER: auCDtect: CD records authenticity detector, version 0.8.2
Copyright (c) 2004 Oleg Berngardt. All rights reserved.
Copyright (c) 2004 Alexander Djourik. All rights reserved.
FILE: SLADE - Slade In Flame (Salvo CD004).wv
  Size: 276788986 Hash: BCD15A248E28CD0173A02EBF28738F98 Accuracy: -m0
  Conclusion: CDDA 100%
  Signature: F5BD3AFD53A4997B7B2EA11CFA92ACE55C891D07
(UK 2007 Union Square • SALVOCD005) Barcode : 6 98458 81052 6
Official DR value: DR7

Продолжительность: 00:57:22
Трек лист:-01. Nobody's Fool [04:40]
02. Do The Dirty [04:42]
03. Let's Call It Quits [03:30]
04. Pack Up Your Troubles [03:25]
05. In For A Penny [03:35]
06. Get On Up [03:26]
07. L.A. Jinx [03:58]
08. Did Ya Mama Ever Tell Ya [03:06]
09. Scratch My Back [03:06]
10. I'm A Talker [03:18]
11. All The World Is A Stage [03:57]
Bonus tracks
12. Thanks For The Memory [04:34]
13. Raining In My Champagne [04:12]
14. Can You Just Imagine [03:32]
15. When The Chips Are Down [04:15]

Отчёт ЕАС:

Exact Audio Copy V0.99 prebeta 5 from 4. May 2009
EAC extraction logfile from 16. May 2012, 22:28
SLADE / Nobody's Fools (Salvo CD005)
Used drive  : ASUS    DRW-24B3ST   Adapter: 0  ID: 0
Read mode               : Secure
Utilize accurate stream : Yes
Defeat audio cache      : Yes
Make use of C2 pointers : No
Read offset correction                      : 6
Overread into Lead-In and Lead-Out          : No
Fill up missing offset samples with silence : Yes
Delete leading and trailing silent blocks   : No
Null samples used in CRC calculations       : Yes
Used interface                              : Native Win32 interface for Win NT & 2000
Used output format              : User Defined Encoder
Selected bitrate                : 1024 kBit/s
Quality                         : High
Add ID3 tag                     : No
Command line compressor         : C:\Program Files (x86)\EAC\WV\wavpack.exe
Additional command line options : -h -hh -m %s %d
TOC of the extracted CD
     Track |   Start  |  Length  | Start sector | End sector
    ---------------------------------------------------------
        1  |  0:00.00 |  4:40.09 |         0    |    21008
        2  |  4:40.09 |  4:42.15 |     21009    |    42173
        3  |  9:22.24 |  3:30.67 |     42174    |    57990
        4  | 12:53.16 |  3:25.06 |     57991    |    73371
        5  | 16:18.22 |  3:35.31 |     73372    |    89527
        6  | 19:53.53 |  3:26.57 |     89528    |   105034
        7  | 23:20.35 |  3:58.10 |    105035    |   122894
        8  | 27:18.45 |  3:06.62 |    122895    |   136906
        9  | 30:25.32 |  3:06.45 |    136907    |   150901
       10  | 33:32.02 |  3:18.26 |    150902    |   165777
       11  | 36:50.28 |  3:57.39 |    165778    |   183591
       12  | 40:47.67 |  4:34.24 |    183592    |   204165
       13  | 45:22.16 |  4:12.12 |    204166    |   223077
       14  | 49:34.28 |  3:32.53 |    223078    |   239030
       15  | 53:07.06 |  4:15.15 |    239031    |   258170
Range status and errors
Selected range
     Filename G:\SLADE\1976- Nobody's Fools (UK 2007 Union Square • SALVOCD005)\SLADE - Nobody's Fools (Salvo CD005).wav
     Peak level 97.7 %
     Range quality 100.0 %
     Test CRC 8095BF49
     Copy CRC 8095BF49
     Copy OK
No errors occurred
AccurateRip summary
Track  1  accurately ripped (confidence 8)  [755E3B7F]
Track  2  accurately ripped (confidence 8)  [751AFF90]
Track  3  accurately ripped (confidence 8)  [DD17F5BC]
Track  4  accurately ripped (confidence 8)  [70752B5F]
Track  5  accurately ripped (confidence 8)  [6289589D]
Track  6  accurately ripped (confidence 8)  [C322A145]
Track  7  accurately ripped (confidence 8)  [7B6941FF]
Track  8  accurately ripped (confidence 8)  [BD9CF9AB]
Track  9  accurately ripped (confidence 8)  [7C72ACC8]
Track 10  accurately ripped (confidence 8)  [3F65FE7F]
Track 11  accurately ripped (confidence 8)  [45D3098D]
Track 12  accurately ripped (confidence 8)  [F4143C03]
Track 13  accurately ripped (confidence 8)  [7E23B0D1]
Track 14  accurately ripped (confidence 8)  [D6836D12]
Track 15  accurately ripped (confidence 8)  [0CCC04FB]
All tracks accurately ripped
End of status report

Отчёт auCDtect Task manager:

-----------------------
DON'T MODIFY THIS FILE
-----------------------
PERFORMER: auCDtect Task Manager, ver. 1.5.1RC4 build 1.5.1.5
Copyright (c) 2008-2010 y-soft. All rights reserved
http://y-soft.org
ANALYZER: auCDtect: CD records authenticity detector, version 0.8.2
Copyright (c) 2004 Oleg Berngardt. All rights reserved.
Copyright (c) 2004 Alexander Djourik. All rights reserved.
FILE: SLADE - Nobody's Fools (Salvo CD005).wv
  Size: 401366902 Hash: F689785A440C20ECD37CD731876E258B Accuracy: -m0
  Conclusion: CDDA 99%
  Signature: 8C338D230C2FAE9D293390B93188D6DAC47B937F
(UK 2007 Union Square • SALVOCD006) Barcode : 6 98458 81062 5
Official DR value: DR7

Продолжительность: 01:09:11
Трек лист:-01. Be [03:59]
02. Lightning Never Strikes Twice [03:08]
03. Gypsy Roadhog [03:23]
04. Dogs Of Vengeance [02:48]
05. When Fantasy Calls [03:23]
06. One Eyed Jacks With Moustaches [03:20]
07. Big Apple Blues [04:38]
08. Dead Men Tell No Tales [03:38]
09. She's Got The Lot [04:34]
10. It Ain't Love But It Ain't Bad [03:09]
11. The Soul The Roll And The Motion [04:36]
Bonus tracks
12. Forest Full Of Needles [03:30]
13. Burning In The Heat Of Love [03:36]
14. Ready Steady Kids [03:22]
15. My Baby Left Me : That's Alright [02:24]
16. O. H. M. S. [02:41]
17. Give Us A Goal [02:50]
18. Daddio [02:34]
19. Rock 'N' Roll Bolero [04:06]
20. It's Alright Buy Me [03:23]

Отчёт ЕАС:

Exact Audio Copy V0.99 prebeta 5 from 4. May 2009
EAC extraction logfile from 16. May 2012, 23:05
SLADE / Whatever Happened To Slade (Salvo CD006)
Used drive  : ASUS    DRW-24B3ST   Adapter: 0  ID: 0
Read mode               : Secure
Utilize accurate stream : Yes
Defeat audio cache      : Yes
Make use of C2 pointers : No
Read offset correction                      : 6
Overread into Lead-In and Lead-Out          : No
Fill up missing offset samples with silence : Yes
Delete leading and trailing silent blocks   : No
Null samples used in CRC calculations       : Yes
Used interface                              : Native Win32 interface for Win NT & 2000
Used output format              : User Defined Encoder
Selected bitrate                : 1024 kBit/s
Quality                         : High
Add ID3 tag                     : No
Command line compressor         : C:\Program Files (x86)\EAC\WV\wavpack.exe
Additional command line options : -h -hh -m %s %d
TOC of the extracted CD
     Track |   Start  |  Length  | Start sector | End sector
    ---------------------------------------------------------
        1  |  0:00.00 |  3:59.01 |         0    |    17925
        2  |  3:59.01 |  3:08.08 |     17926    |    32033
        3  |  7:07.09 |  3:23.67 |     32034    |    47325
        4  | 10:31.01 |  2:48.12 |     47326    |    59937
        5  | 13:19.13 |  3:23.46 |     59938    |    75208
        6  | 16:42.59 |  3:20.61 |     75209    |    90269
        7  | 20:03.45 |  4:38.24 |     90270    |   111143
        8  | 24:41.69 |  3:38.69 |    111144    |   127562
        9  | 28:20.63 |  4:34.16 |    127563    |   148128
       10  | 32:55.04 |  3:09.37 |    148129    |   162340
       11  | 36:04.41 |  4:36.15 |    162341    |   183055
       12  | 40:40.56 |  3:30.35 |    183056    |   198840
       13  | 44:11.16 |  3:36.65 |    198841    |   215105
       14  | 47:48.06 |  3:22.34 |    215106    |   230289
       15  | 51:10.40 |  2:24.44 |    230290    |   241133
       16  | 53:35.09 |  2:41.74 |    241134    |   253282
       17  | 56:17.08 |  2:50.60 |    253283    |   266092
       18  | 59:07.68 |  2:34.17 |    266093    |   277659
       19  | 61:42.10 |  4:06.14 |    277660    |   296123
       20  | 65:48.24 |  3:23.05 |    296124    |   311353
Range status and errors
Selected range
     Filename G:\SLADE\1977- Whatever Happened To Slade (UK 2007 Union Square • SALVOCD006)\SLADE - Whatever Happened To Slade (Salvo CD006).wav
     Peak level 97.7 %
     Range quality 100.0 %
     Test CRC 70539136
     Copy CRC 70539136
     Copy OK
No errors occurred
AccurateRip summary
Track  1  accurately ripped (confidence 5)  [4C181071]
Track  2  accurately ripped (confidence 6)  [114A2D53]
Track  3  accurately ripped (confidence 5)  [E6A5E6D5]
Track  4  accurately ripped (confidence 5)  [08950D0C]
Track  5  accurately ripped (confidence 5)  [5365B549]
Track  6  accurately ripped (confidence 5)  [DAFEAFB4]
Track  7  accurately ripped (confidence 5)  [E6A23403]
Track  8  accurately ripped (confidence 6)  [FA2F8561]
Track  9  accurately ripped (confidence 5)  [D379813E]
Track 10  accurately ripped (confidence 5)  [FF655CB2]
Track 11  accurately ripped (confidence 5)  [0578F6AA]
Track 12  accurately ripped (confidence 5)  [A2B877CB]
Track 13  accurately ripped (confidence 5)  [FFB6C71B]
Track 14  accurately ripped (confidence 5)  [2F90A26A]
Track 15  accurately ripped (confidence 6)  [FDF2777C]
Track 16  accurately ripped (confidence 5)  [3EE22AD6]
Track 17  accurately ripped (confidence 6)  [CFE0FB48]
Track 18  accurately ripped (confidence 5)  [69741FA7]
Track 19  accurately ripped (confidence 6)  [C9204C72]
Track 20  accurately ripped (confidence 3)  [345F8CAB]
All tracks accurately ripped
End of status report

Отчёт auCDtect Task manager:

-----------------------
DON'T MODIFY THIS FILE
-----------------------
PERFORMER: auCDtect Task Manager, ver. 1.5.1RC4 build 1.5.1.5
Copyright (c) 2008-2010 y-soft. All rights reserved
http://y-soft.org
ANALYZER: auCDtect: CD records authenticity detector, version 0.8.2
Copyright (c) 2004 Oleg Berngardt. All rights reserved.
Copyright (c) 2004 Alexander Djourik. All rights reserved.
FILE: SLADE - Whatever Happened To Slade (Salvo CD006).wv
  Size: 515393012 Hash: C1BFB9CEBFBA6BBBEDA7B00DE5DEABED Accuracy: -m0
  Conclusion: CDDA 100%
  Signature: 55B03538ABED3B910B9DE15D28D0D811DAF17B25
(UK 2007 Union Square • SALVOCD007) Barcode : 6 98458 81072 4
Official DR value: DR7

Продолжительность: 00:56:37
Трек лист:-01. We'll Bring The House Down [03:32]
02. Night Starvation [03:05]
03. Wheels Ain't Coming Down [03:37]
04. Hold On To Your Hats [02:33]
05. When I'm Dancin' I Ain't Fighting [03:09]
06. Dizzy Mama [03:37]
07. Nuts, Bolts And Screws [02:29]
08. My Baby's Got It [02:35]
09. Lemme Love Into Ya [03:26]
10. I'm A Rocker [02:42]
Tracks from Return to Base
11. Chakeeta [02:28]
12. Don't Waste Your Time [03:29]
13. Sign Of The Times [03:58]
14. I'm Mad [02:48]
15. Ginny Ginny [03:40]
Bonus tracks
16. Not Tonight Josephine [03:03]
17. Okey Cokey [03:25]
18. 9 To 5 [02:54]

Отчёт ЕАС:

Exact Audio Copy V0.99 prebeta 5 from 4. May 2009
EAC extraction logfile from 16. May 2012, 23:49
SLADE / We'll Bring The House Down (Salvo CD007)
Used drive  : ASUS    DRW-24B3ST   Adapter: 0  ID: 1
Read mode               : Secure
Utilize accurate stream : Yes
Defeat audio cache      : Yes
Make use of C2 pointers : No
Read offset correction                      : 6
Overread into Lead-In and Lead-Out          : No
Fill up missing offset samples with silence : Yes
Delete leading and trailing silent blocks   : No
Null samples used in CRC calculations       : Yes
Used interface                              : Native Win32 interface for Win NT & 2000
Used output format              : User Defined Encoder
Selected bitrate                : 1024 kBit/s
Quality                         : High
Add ID3 tag                     : No
Command line compressor         : C:\Program Files (x86)\EAC\WV\wavpack.exe
Additional command line options : -h -hh -m %s %d
TOC of the extracted CD
     Track |   Start  |  Length  | Start sector | End sector
    ---------------------------------------------------------
        1  |  0:00.00 |  3:32.68 |         0    |    15967
        2  |  3:32.68 |  3:05.58 |     15968    |    29900
        3  |  6:38.51 |  3:37.27 |     29901    |    46202
        4  | 10:16.03 |  2:33.40 |     46203    |    57717
        5  | 12:49.43 |  3:09.29 |     57718    |    71921
        6  | 15:58.72 |  3:37.49 |     71922    |    88245
        7  | 19:36.46 |  2:29.43 |     88246    |    99463
        8  | 22:06.14 |  2:35.03 |     99464    |   111091
        9  | 24:41.17 |  3:26.03 |    111092    |   126544
       10  | 28:07.20 |  2:42.18 |    126545    |   138712
       11  | 30:49.38 |  2:28.13 |    138713    |   149825
       12  | 33:17.51 |  3:29.52 |    149826    |   165552
       13  | 36:47.28 |  3:58.14 |    165553    |   183416
       14  | 40:45.42 |  2:48.29 |    183417    |   196045
       15  | 43:33.71 |  3:40.11 |    196046    |   212556
       16  | 47:14.07 |  3:03.14 |    212557    |   226295
       17  | 50:17.21 |  3:25.50 |    226296    |   241720
       18  | 53:42.71 |  2:54.72 |    241721    |   254842
Range status and errors
Selected range
     Filename G:\SLADE\1981- We'll Bring The House Down (UK 2007 Union Square • SALVOCD007)\SLADE - We'll Bring The House Down (Salvo CD007).wav
     Peak level 97.7 %
     Range quality 100.0 %
     Test CRC 5CCF4A21
     Copy CRC 5CCF4A21
     Copy OK
No errors occurred
AccurateRip summary
Track  1  accurately ripped (confidence 3)  [4D12B6BE]
Track  2  accurately ripped (confidence 2)  [2F11964F]
Track  3  accurately ripped (confidence 3)  [49632599]
Track  4  accurately ripped (confidence 3)  [D71B580B]
Track  5  accurately ripped (confidence 2)  [A605BF63]
Track  6  accurately ripped (confidence 2)  [3B2B32B0]
Track  7  accurately ripped (confidence 2)  [065817ED]
Track  8  accurately ripped (confidence 2)  [FB92FE6C]
Track  9  accurately ripped (confidence 2)  [DDE95155]
Track 10  accurately ripped (confidence 2)  [C43E00FA]
Track 11  accurately ripped (confidence 3)  [358C9D00]
Track 12  accurately ripped (confidence 3)  [477D1C7F]
Track 13  accurately ripped (confidence 3)  [6F3B75C4]
Track 14  accurately ripped (confidence 3)  [AAAFDCA0]
Track 15  accurately ripped (confidence 2)  [E3F4F46E]
Track 16  accurately ripped (confidence 2)  [31B9D2CB]
Track 17  accurately ripped (confidence 2)  [E68ECA9C]
Track 18  not present in database
17 track(s) accurately ripped
1 track(s) not present in the AccurateRip database
Some tracks could not be verified as accurate
End of status report

Отчёт auCDtect Task manager:

-----------------------
DON'T MODIFY THIS FILE
-----------------------
PERFORMER: auCDtect Task Manager, ver. 1.5.1RC4 build 1.5.1.5
Copyright (c) 2008-2010 y-soft. All rights reserved
http://y-soft.org
ANALYZER: auCDtect: CD records authenticity detector, version 0.8.2
Copyright (c) 2004 Oleg Berngardt. All rights reserved.
Copyright (c) 2004 Alexander Djourik. All rights reserved.
FILE: SLADE - We'll Bring The House Down (Salvo CD007).wv
  Size: 419013938 Hash: D945CE942ED15C409570828424340446 Accuracy: -m0
  Conclusion: CDDA 100%
  Signature: 198BDFC2C7341B47026F87CF26EABB51FD88EFB2
(UK 2007 Union Square • SALVOCD008) Barcode : 6 98458 81082 3
Official DR value: DR6

Продолжительность: 00:41:38
Трек лист:-01. Rock And Roll Preacher (Hallelujah I'm On Fire) [05:45]
02. Lock Up Your Daughters [03:27]
03. Till Deaf Do Us Part [03:29]
04. Ruby Red [02:53]
05. She Brings Out The Devil In Me [03:27]
06. A Night To Remember [03:54]
07. M'hat M'coat [01:42]
08. It's Your Body Not Your Mind [03:04]
09. Let The Rock Roll Out Of Control [04:00]
10. That Was No Lady That Was My Wife [02:35]
11. Nuckle Sandwich Nancy [03:14]
12. Till Deaf Resurrected [01:05]
Bonus tracks
13. Funk Punk & Junk [02:57]

Отчёт ЕАС:

Exact Audio Copy V0.99 prebeta 5 from 4. May 2009
EAC extraction logfile from 16. May 2012, 22:59
SLADE / Til Deaf Do Us Part (Salvo CD008)
Used drive  : ASUS    DRW-24B3ST   Adapter: 0  ID: 1
Read mode               : Secure
Utilize accurate stream : Yes
Defeat audio cache      : Yes
Make use of C2 pointers : No
Read offset correction                      : 6
Overread into Lead-In and Lead-Out          : No
Fill up missing offset samples with silence : Yes
Delete leading and trailing silent blocks   : No
Null samples used in CRC calculations       : Yes
Used interface                              : Native Win32 interface for Win NT & 2000
Used output format              : User Defined Encoder
Selected bitrate                : 1024 kBit/s
Quality                         : High
Add ID3 tag                     : No
Command line compressor         : C:\Program Files (x86)\EAC\WV\wavpack.exe
Additional command line options : -h -hh -m %s %d
TOC of the extracted CD
     Track |   Start  |  Length  | Start sector | End sector
    ---------------------------------------------------------
        1  |  0:00.00 |  5:45.35 |         0    |    25909
        2  |  5:45.35 |  3:27.72 |     25910    |    41506
        3  |  9:13.32 |  3:29.13 |     41507    |    57194
        4  | 12:42.45 |  2:53.42 |     57195    |    70211
        5  | 15:36.12 |  3:27.22 |     70212    |    85758
        6  | 19:03.34 |  3:54.73 |     85759    |   103381
        7  | 22:58.32 |  1:42.52 |    103382    |   111083
        8  | 24:41.09 |  3:04.23 |    111084    |   124906
        9  | 27:45.32 |  4:00.12 |    124907    |   142918
       10  | 31:45.44 |  2:35.13 |    142919    |   154556
       11  | 34:20.57 |  3:14.52 |    154557    |   169158
       12  | 37:35.34 |  1:05.55 |    169159    |   174088
       13  | 38:41.14 |  2:57.48 |    174089    |   187411
Range status and errors
Selected range
     Filename G:\SLADE\1981- Til Deaf Do Us Part (UK 2007 Union Square • SALVOCD008)\SLADE - Til Deaf Do Us Part (Salvo CD008).wav
     Peak level 97.7 %
     Range quality 100.0 %
     Test CRC 3228547F
     Copy CRC 3228547F
     Copy OK
No errors occurred
AccurateRip summary

Отчёт auCDtect Task manager:

-----------------------
DON'T MODIFY THIS FILE
-----------------------
PERFORMER: auCDtect Task Manager, ver. 1.5.1RC4 build 1.5.1.5
Copyright (c) 2008-2010 y-soft. All rights reserved
http://y-soft.org
ANALYZER: auCDtect: CD records authenticity detector, version 0.8.2
Copyright (c) 2004 Oleg Berngardt. All rights reserved.
Copyright (c) 2004 Alexander Djourik. All rights reserved.
FILE: SLADE - Til Deaf Do Us Part (Salvo CD008).wv
  Size: 298475730 Hash: CF470EF2832965B197B2E6B394C7D3F2 Accuracy: -m0
  Conclusion: CDDA 100%
  Signature: A9B0F9CF3D11AAA536CABD9C9F3C1B3EE3416DEF
(UK 2007 Union Square • SALVOCD009) Barcode : 6 98458 81092 2
Official DR value: DR8

Продолжительность: 01:06:18
Трек лист:-01. Slam The Hammer Down [03:25]
02. In The Doghouse [02:44]
03. Run Runaway [05:00]
04. High And Dry [03:10]
05. My Oh My [04:12]
06. Cocky Rock Boys [03:26]
07. Ready To Explode [08:37]
08. C'est La Vie [03:43]
09. Cheap 'N' Nasty Luv [03:27]
10. Razzle Dazzle Man [04:38]
Bonus tracks
11. Keep Your Hands Off My Power Supply [03:34]
12. My Oh My (12' version) [05:34]
13. Don't Tame A Hurricane [02:33]
14. Run Runaway (12' version) [05:26]
15. Two Track Stereo One Track Mind [02:55]
16. Slam The Hammer Down (Hotter mix) [03:44]

Отчёт ЕАС:

Exact Audio Copy V0.99 prebeta 5 from 4. May 2009
EAC extraction logfile from 16. May 2012, 23:49
SLADE / The Amazing Kamikaze Syndrome (Salvo CD009)
Used drive  : ASUS    DRW-24B3ST   Adapter: 0  ID: 0
Read mode               : Secure
Utilize accurate stream : Yes
Defeat audio cache      : Yes
Make use of C2 pointers : No
Read offset correction                      : 6
Overread into Lead-In and Lead-Out          : No
Fill up missing offset samples with silence : Yes
Delete leading and trailing silent blocks   : No
Null samples used in CRC calculations       : Yes
Used interface                              : Native Win32 interface for Win NT & 2000
Used output format              : User Defined Encoder
Selected bitrate                : 1024 kBit/s
Quality                         : High
Add ID3 tag                     : No
Command line compressor         : C:\Program Files (x86)\EAC\WV\wavpack.exe
Additional command line options : -h -hh -m %s %d
TOC of the extracted CD
     Track |   Start  |  Length  | Start sector | End sector
    ---------------------------------------------------------
        1  |  0:00.00 |  3:25.67 |         0    |    15441
        2  |  3:25.67 |  2:44.72 |     15442    |    27813
        3  |  6:10.64 |  5:00.69 |     27814    |    50382
        4  | 11:11.58 |  3:10.66 |     50383    |    64698
        5  | 14:22.49 |  4:12.12 |     64699    |    83610
        6  | 18:34.61 |  3:26.71 |     83611    |    99131
        7  | 22:01.57 |  8:37.74 |     99132    |   137980
        8  | 30:39.56 |  3:43.30 |    137981    |   154735
        9  | 34:23.11 |  3:27.52 |    154736    |   170312
       10  | 37:50.63 |  4:38.74 |    170313    |   191236
       11  | 42:29.62 |  3:34.35 |    191237    |   207321
       12  | 46:04.22 |  5:34.32 |    207322    |   232403
       13  | 51:38.54 |  2:33.09 |    232404    |   243887
       14  | 54:11.63 |  5:26.38 |    243888    |   268375
       15  | 59:38.26 |  2:55.22 |    268376    |   281522
       16  | 62:33.48 |  3:44.38 |    281523    |   298360
Range status and errors
Selected range
     Filename G:\SLADE\1983- The Amazing Kamikaze Syndrome (UK 2007 Union Square • SALVOCD009)\SLADE - The Amazing Kamikaze Syndrome (Salvo CD009).wav
     Peak level 97.7 %
     Range quality 99.9 %
     Test CRC 69342084
     Copy CRC 69342084
     Copy OK
No errors occurred
AccurateRip summary
Track  1  accurately ripped (confidence 7)  [DA3161C2]
Track  2  accurately ripped (confidence 7)  [6D8207F5]
Track  3  accurately ripped (confidence 8)  [E1FDAE97]
Track  4  accurately ripped (confidence 7)  [C6B5DC84]
Track  5  accurately ripped (confidence 8)  [A33A0A0E]
Track  6  accurately ripped (confidence 7)  [8C5B6A88]
Track  7  accurately ripped (confidence 7)  [919B8180]
Track  8  accurately ripped (confidence 8)  [CFBA743E]
Track  9  accurately ripped (confidence 7)  [A0FC6305]
Track 10  accurately ripped (confidence 7)  [09C8D5C2]
Track 11  accurately ripped (confidence 7)  [8EF71F54]
Track 12  accurately ripped (confidence 8)  [706380C0]
Track 13  accurately ripped (confidence 7)  [0D0F9A8A]
Track 14  accurately ripped (confidence 8)  [BB908727]
Track 15  accurately ripped (confidence 7)  [A855DD68]
Track 16  accurately ripped (confidence 7)  [82EE1C49]
All tracks accurately ripped
End of status report

Отчёт auCDtect Task manager:

-----------------------
DON'T MODIFY THIS FILE
-----------------------
PERFORMER: auCDtect Task Manager, ver. 1.5.1RC4 build 1.5.1.5
Copyright (c) 2008-2010 y-soft. All rights reserved
http://y-soft.org
ANALYZER: auCDtect: CD records authenticity detector, version 0.8.2
Copyright (c) 2004 Oleg Berngardt. All rights reserved.
Copyright (c) 2004 Alexander Djourik. All rights reserved.
FILE: SLADE - The Amazing Kamikaze Syndrome (Salvo CD009).wv
  Size: 494312638 Hash: 8327EDE60302487EBA602CAF4CB05EDE Accuracy: -m0
  Conclusion: CDDA 100%
  Signature: ED27D4BA81A344812065E744BD01B7B6A76C4CC3
(UK 2007 Union Square • SALVOCD010) Barcode : 6 98458 81102 8
Official DR value: DR8

Продолжительность: 01:19:52
Трек лист:-01. Hey Ho Wish You Well [05:18]
02. Little Sheila [03:56]
03. Harmony [03:43]
04. Myzsterious Mizster Jones [03:35]
05. Walking On Water, Running On Alcohol [04:57]
06. 7 Year Bitch [04:15]
07. I'll Be There [04:31]
08. I Win, You Lose [03:31]
09. Time To Rock [04:08]
10. All Join Hands [05:31]
Bonus tracks
11. Here's To... (The New Year) [03:10]
12. Leave Them Girls Alone [05:38]
13. Mama Nature Is A Rocker [03:14]
14. My Oh My (Demo) [04:47]
15. Do You Believe In Miracles [02:52]
16. My Oh My (Swing version) [03:12]
17. 7 Year Bitch (12'' version) [04:10]
18. Myzsterious Mizster Jones (12'' version) [03:02]
19. Do You Believe In Miracles (12'' version) [06:14]

Отчёт ЕАС:

Exact Audio Copy V0.99 prebeta 5 from 4. May 2009
EAC extraction logfile from 17. May 2012, 6:31
SLADE / Rogues Gallery (Salvo CD010)
Used drive  : ASUS    DRW-24B3ST   Adapter: 0  ID: 0
Read mode               : Secure
Utilize accurate stream : Yes
Defeat audio cache      : Yes
Make use of C2 pointers : No
Read offset correction                      : 6
Overread into Lead-In and Lead-Out          : No
Fill up missing offset samples with silence : Yes
Delete leading and trailing silent blocks   : No
Null samples used in CRC calculations       : Yes
Used interface                              : Native Win32 interface for Win NT & 2000
Used output format              : User Defined Encoder
Selected bitrate                : 1024 kBit/s
Quality                         : High
Add ID3 tag                     : No
Command line compressor         : C:\Program Files (x86)\EAC\WV\wavpack.exe
Additional command line options : -h -hh -m %s %d
TOC of the extracted CD
     Track |   Start  |  Length  | Start sector | End sector
    ---------------------------------------------------------
        1  |  0:00.00 |  5:18.26 |         0    |    23875
        2  |  5:18.26 |  3:56.06 |     23876    |    41581
        3  |  9:14.32 |  3:43.55 |     41582    |    58361
        4  | 12:58.12 |  3:35.28 |     58362    |    74514
        5  | 16:33.40 |  4:57.46 |     74515    |    96835
        6  | 21:31.11 |  4:15.32 |     96836    |   115992
        7  | 25:46.43 |  4:31.04 |    115993    |   136321
        8  | 30:17.47 |  3:31.72 |    136322    |   152218
        9  | 33:49.44 |  4:08.54 |    152219    |   170872
       10  | 37:58.23 |  5:31.22 |    170873    |   195719
       11  | 43:29.45 |  3:10.06 |    195720    |   209975
       12  | 46:39.51 |  5:38.69 |    209976    |   235394
       13  | 52:18.45 |  3:14.24 |    235395    |   249968
       14  | 55:32.69 |  4:47.25 |    249969    |   271518
       15  | 60:20.19 |  2:52.66 |    271519    |   284484
       16  | 63:13.10 |  3:12.32 |    284485    |   298916
       17  | 66:25.42 |  4:10.18 |    298917    |   317684
       18  | 70:35.60 |  3:02.59 |    317685    |   331393
       19  | 73:38.44 |  6:14.16 |    331394    |   359459
Range status and errors
Selected range
     Filename G:\SLADE\1985- Rogues Gallery (UK 2007 Union Square • SALVOCD010)\SLADE - Rogues Gallery (Salvo CD010).wav
     Peak level 97.7 %
     Range quality 99.9 %
     Test CRC 1714D20B
     Copy CRC 1714D20B
     Copy OK
No errors occurred
AccurateRip summary
Track  1  accurately ripped (confidence 1)  [F10978C5]
Track  2  accurately ripped (confidence 1)  [7F75C1FA]
Track  3  accurately ripped (confidence 1)  [F4868C90]
Track  4  accurately ripped (confidence 1)  [F2FE8DD7]
Track  5  accurately ripped (confidence 1)  [8C7ED4D3]
Track  6  accurately ripped (confidence 1)  [DC6312F8]
Track  7  accurately ripped (confidence 1)  [81F629A8]
Track  8  accurately ripped (confidence 1)  [0D746C87]
Track  9  accurately ripped (confidence 1)  [E0C9600A]
Track 10  accurately ripped (confidence 1)  [879E0BFB]
Track 11  accurately ripped (confidence 1)  [28AE0166]
Track 12  accurately ripped (confidence 1)  [C1590193]
Track 13  accurately ripped (confidence 1)  [076FE855]
Track 14  accurately ripped (confidence 1)  [9B0BE300]
Track 15  accurately ripped (confidence 1)  [5D669A8C]
Track 16  accurately ripped (confidence 1)  [9B88D68A]
Track 17  accurately ripped (confidence 1)  [E0455ACB]
Track 18  accurately ripped (confidence 1)  [08B78B22]
Track 19  accurately ripped (confidence 1)  [EBB80655]
All tracks accurately ripped
End of status report

Отчёт auCDtect Task manager:

-----------------------
DON'T MODIFY THIS FILE
-----------------------
PERFORMER: auCDtect Task Manager, ver. 1.5.1RC4 build 1.5.1.5
Copyright (c) 2008-2010 y-soft. All rights reserved
http://y-soft.org
ANALYZER: auCDtect: CD records authenticity detector, version 0.8.2
Copyright (c) 2004 Oleg Berngardt. All rights reserved.
Copyright (c) 2004 Alexander Djourik. All rights reserved.
FILE: SLADE - Rogues Gallery (Salvo CD010).wv
  Size: 627489926 Hash: E4E2C857E0000E498D654758A8C2470B Accuracy: -m0
  Conclusion: CDDA 100%
  Signature: 9DB684BE4822604D02C576193C9FA8491A384C10
(UK 2007 Union Square • SALVOCD011) Barcode : 6 98458 81112 7
Official DR value: DR8

Продолжительность: 01:12:36
Трек лист:-01. Love Is Like A Rock [03:41]
02. That's What Friends Are For [03:18]
03. Still The Same [04:14]
04. Fools Go Crazy [03:18]
05. She's Heavy [02:36]
06. We Won't Give In [03:38]
07. Won't You Rock With Me [03:47]
08. Ooh La La In LA [03:52]
09. Me And The Boys [02:42]
10. Sing Shout (Knock Yourself Out) [03:12]
11. The Roaring Silence [02:49]
12. It's Hard Having Fun Nowadays [03:51]
Bonus tracks
13. Still The Same (12'' Version) [05:35]
14. Gotta Go Home [03:20]
15. Don't Talk To Me About Love [02:28]
16. Wild Wild Party [02:55]
17. You Boyz Make Big Noize [03:01]
18. You Boyz Make Big Noize (Noize Remix) [05:31]
19. Let's Dance ('88 Remix) [02:40]
20. You Boyz Make Big Noize (Instrumental Boyz Version) [03:01]
21. You Boyz Make Big Noize (USA Mix) [03:00]

Отчёт ЕАС:

Exact Audio Copy V0.99 prebeta 5 from 4. May 2009
EAC extraction logfile from 17. May 2012, 6:31
SLADE / You Boyz Make Big Noize (Salvo CD011)
Used drive  : ASUS    DRW-24B3ST   Adapter: 0  ID: 1
Read mode               : Secure
Utilize accurate stream : Yes
Defeat audio cache      : Yes
Make use of C2 pointers : No
Read offset correction                      : 6
Overread into Lead-In and Lead-Out          : No
Fill up missing offset samples with silence : Yes
Delete leading and trailing silent blocks   : No
Null samples used in CRC calculations       : Yes
Used interface                              : Native Win32 interface for Win NT & 2000
Used output format              : User Defined Encoder
Selected bitrate                : 1024 kBit/s
Quality                         : High
Add ID3 tag                     : No
Command line compressor         : C:\Program Files (x86)\EAC\WV\wavpack.exe
Additional command line options : -h -hh -m %s %d
TOC of the extracted CD
     Track |   Start  |  Length  | Start sector | End sector
    ---------------------------------------------------------
        1  |  0:00.00 |  3:41.11 |         0    |    16585
        2  |  3:41.11 |  3:18.26 |     16586    |    31461
        3  |  6:59.37 |  4:14.08 |     31462    |    50519
        4  | 11:13.45 |  3:18.35 |     50520    |    65404
        5  | 14:32.05 |  2:36.65 |     65405    |    77169
        6  | 17:08.70 |  3:38.53 |     77170    |    93572
        7  | 20:47.48 |  3:47.13 |     93573    |   110610
        8  | 24:34.61 |  3:52.15 |    110611    |   128025
        9  | 28:27.01 |  2:42.07 |    128026    |   140182
       10  | 31:09.08 |  3:12.22 |    140183    |   154604
       11  | 34:21.30 |  2:49.18 |    154605    |   167297
       12  | 37:10.48 |  3:51.32 |    167298    |   184654
       13  | 41:02.05 |  5:35.34 |    184655    |   209813
       14  | 46:37.39 |  3:20.10 |    209814    |   224823
       15  | 49:57.49 |  2:28.45 |    224824    |   235968
       16  | 52:26.19 |  2:55.18 |    235969    |   249111
       17  | 55:21.37 |  3:01.60 |    249112    |   262746
       18  | 58:23.22 |  5:31.28 |    262747    |   287599
       19  | 63:54.50 |  2:40.54 |    287600    |   299653
       20  | 66:35.29 |  3:01.12 |    299654    |   313240
       21  | 69:36.41 |  3:00.25 |    313241    |   326765
Range status and errors
Selected range
     Filename G:\SLADE\1987- You Boyz Make Big Noize (UK 2007 Union Square • SALVOCD011)\SLADE - You Boyz Make Big Noize (Salvo CD011).wav
     Peak level 97.7 %
     Range quality 99.9 %
     Test CRC A7D0D4C0
     Copy CRC A7D0D4C0
     Copy OK
No errors occurred
AccurateRip summary
Track  1  accurately ripped (confidence 2)  [867940FA]
Track  2  accurately ripped (confidence 2)  [E8481C40]
Track  3  accurately ripped (confidence 2)  [0266AA72]
Track  4  accurately ripped (confidence 2)  [52AC6A7F]
Track  5  accurately ripped (confidence 2)  [F02592E2]
Track  6  accurately ripped (confidence 2)  [586ACA5B]
Track  7  accurately ripped (confidence 2)  [9A25D141]
Track  8  accurately ripped (confidence 2)  [ACA4E061]
Track  9  accurately ripped (confidence 2)  [FD3FFC23]
Track 10  accurately ripped (confidence 2)  [5101DD07]
Track 11  accurately ripped (confidence 2)  [00B66FAF]
Track 12  accurately ripped (confidence 2)  [C2B7024A]
Track 13  accurately ripped (confidence 2)  [A72EFE3E]
Track 14  accurately ripped (confidence 2)  [83F3ABCA]
Track 15  accurately ripped (confidence 2)  [3E7311FA]
Track 16  accurately ripped (confidence 2)  [A3E0BE36]
Track 17  accurately ripped (confidence 2)  [F3EC0493]
Track 18  accurately ripped (confidence 2)  [D0F94E09]
Track 19  accurately ripped (confidence 2)  [CE8F243F]
Track 20  accurately ripped (confidence 2)  [2D587080]
Track 21  not present in database
20 track(s) accurately ripped
1 track(s) not present in the AccurateRip database
Some tracks could not be verified as accurate
End of status report

Отчёт auCDtect Task manager:

-----------------------
DON'T MODIFY THIS FILE
-----------------------
PERFORMER: auCDtect Task Manager, ver. 1.5.1RC4 build 1.5.1.5
Copyright (c) 2008-2010 y-soft. All rights reserved
http://y-soft.org
ANALYZER: auCDtect: CD records authenticity detector, version 0.8.2
Copyright (c) 2004 Oleg Berngardt. All rights reserved.
Copyright (c) 2004 Alexander Djourik. All rights reserved.
FILE: SLADE - You Boyz Make Big Noize (Salvo CD011).wv
  Size: 565519216 Hash: 513F94C57E83AC6F00BBBFA0E13FFE31 Accuracy: -m0
  Conclusion: CDDA 100%
  Signature: 025D7403D8775AED281CB7EE0056D39D29A830F6
Compilation (2CD UK 2007 Union Square • SALVODCD203) Barcode : 6 98458 82032 7
Official DR value: DR7, DR7; 2 ? CD, Compilation

Продолжительность: 02:10:41
Трек лист
-CD1 (01:12:38)
01. One Way Hotel [02:39]
02. C'mon C'mon [02:42]
03. Do You Want Me [04:42]
04. The Gospel According To Rasputin [04:21]
05. My Life Is Natural [03:17]
06. Candidate [02:52]
07. Wonderin' Y [02:50]
08. Man Who Speeks Evil [03:17]
09. I Won't Let It 'appen Agen [03:17]
10. I'm Mee I'm Now And That's Orl [03:41]
11. Kill 'em At The Hot Club Tonite [03:21]
12. My Town [03:07]
13. Don't Blame Me [02:32]
14. She Did It To Me [03:19]
15. OK Yesterday Was Yesterday [03:58]
16. So Far So Good [03:02]
17. Raining In My Champagne [04:12]
18. Can You Just Imagine [03:33]
19. When The Chips Are Down [04:15]
20. L.A. Jinx [03:59]
21. Forest Full Of Needles [03:32]

CD2

Продолжительность: 00:58:03
Трек лист-01. Ready Steady Kids [03:24]
02. O.H.M.S. [02:42]
03. Daddio [02:33]
04. It's Alright Buy Me [03:22]
05. Not Tonight Josephine [03:03]
06. Funk Punk & Junk [02:58]
07. Keep Your Hands Off My Power Supply [03:34]
08. Don't Tame A Hurricane [02:33]
09. Two Track Stereo One Track Mind [02:54]
10. Here's To The New Year [03:11]
11. Leave Them Girls Alone [03:15]
12. Mama Nature Is A Rocker [02:54]
13. My Oh My (Swing Version) [03:04]
14. Gotta Go Home [03:19]
15. Don't Talk To Me About Love [02:28]
16. Wild Wild Party [02:55]
17. You Boyz Make Big Noize (Instrumental) [03:02]
18. Lay Your Love On The Line [03:09]
19. Red Hot [03:34]

Отчёт ЕАС CD 1:

Exact Audio Copy V0.99 prebeta 5 from 4. May 2009
EAC extraction logfile from 17. May 2012, 7:19
SLADE / B-Sides (Salvo DCD203) CD1
Used drive  : ASUS    DRW-24B3ST   Adapter: 0  ID: 0
Read mode               : Secure
Utilize accurate stream : Yes
Defeat audio cache      : Yes
Make use of C2 pointers : No
Read offset correction                      : 6
Overread into Lead-In and Lead-Out          : No
Fill up missing offset samples with silence : Yes
Delete leading and trailing silent blocks   : No
Null samples used in CRC calculations       : Yes
Used interface                              : Native Win32 interface for Win NT & 2000
Used output format              : User Defined Encoder
Selected bitrate                : 1024 kBit/s
Quality                         : High
Add ID3 tag                     : No
Command line compressor         : C:\Program Files (x86)\EAC\WV\wavpack.exe
Additional command line options : -h -hh -m %s %d
TOC of the extracted CD
     Track |   Start  |  Length  | Start sector | End sector
    ---------------------------------------------------------
        1  |  0:00.00 |  2:39.66 |         0    |    11990
        2  |  2:39.66 |  2:42.11 |     11991    |    24151
        3  |  5:22.02 |  4:42.61 |     24152    |    45362
        4  | 10:04.63 |  4:21.74 |     45363    |    65011
        5  | 14:26.62 |  3:17.51 |     65012    |    79837
        6  | 17:44.38 |  2:52.41 |     79838    |    92778
        7  | 20:37.04 |  2:50.25 |     92779    |   105553
        8  | 23:27.29 |  3:17.32 |    105554    |   120360
        9  | 26:44.61 |  3:17.03 |    120361    |   135138
       10  | 30:01.64 |  3:41.26 |    135139    |   151739
       11  | 33:43.15 |  3:21.03 |    151740    |   166817
       12  | 37:04.18 |  3:07.21 |    166818    |   180863
       13  | 40:11.39 |  2:32.74 |    180864    |   192337
       14  | 42:44.38 |  3:19.02 |    192338    |   207264
       15  | 46:03.40 |  3:58.59 |    207265    |   225173
       16  | 50:02.24 |  3:02.19 |    225174    |   238842
       17  | 53:04.43 |  4:12.47 |    238843    |   257789
       18  | 57:17.15 |  3:33.07 |    257790    |   273771
       19  | 60:50.22 |  4:15.45 |    273772    |   292941
       20  | 65:05.67 |  3:59.54 |    292942    |   310920
       21  | 69:05.46 |  3:32.53 |    310921    |   326873
Range status and errors
Selected range
     Filename G:\SLADE\2007- B-Sides (2CD UK 2007 Union Square • SALVODCD203)\SLADE - B-Sides (Salvo DCD203) CD1.wav
     Peak level 97.7 %
     Range quality 100.0 %
     Test CRC 5B90DECF
     Copy CRC 5B90DECF
     Copy OK
No errors occurred
AccurateRip summary
Track  1  accurately ripped (confidence 1)  [7F4CE771]
Track  2  accurately ripped (confidence 1)  [F14B212C]
Track  3  accurately ripped (confidence 1)  [58FFF586]
Track  4  accurately ripped (confidence 1)  [C8024052]
Track  5  accurately ripped (confidence 1)  [F733BCD1]
Track  6  accurately ripped (confidence 1)  [4FB20F83]
Track  7  accurately ripped (confidence 1)  [5F9BDCFB]
Track  8  accurately ripped (confidence 1)  [0ADA408F]
Track  9  accurately ripped (confidence 1)  [49A05ED8]
Track 10  accurately ripped (confidence 1)  [8744752C]
Track 11  accurately ripped (confidence 1)  [9E9E9FAB]
Track 12  accurately ripped (confidence 1)  [3D76CF6C]
Track 13  accurately ripped (confidence 1)  [4716D5A5]
Track 14  accurately ripped (confidence 1)  [153A357A]
Track 15  accurately ripped (confidence 1)  [561D8268]
Track 16  accurately ripped (confidence 1)  [BDD3C654]
Track 17  accurately ripped (confidence 1)  [80314FF4]
Track 18  accurately ripped (confidence 1)  [6AE1030C]
Track 19  accurately ripped (confidence 1)  [BE1231B8]
Track 20  accurately ripped (confidence 1)  [C5869A8F]
Track 21  accurately ripped (confidence 1)  [489D0061]
All tracks accurately ripped
End of status report

Отчёт ЕАС CD 2:

Exact Audio Copy V0.99 prebeta 5 from 4. May 2009
EAC extraction logfile from 17. May 2012, 7:16
SLADE / B-Sides (Salvo DCD203) CD2
Used drive  : ASUS    DRW-24B3ST   Adapter: 0  ID: 1
Read mode               : Secure
Utilize accurate stream : Yes
Defeat audio cache      : Yes
Make use of C2 pointers : No
Read offset correction                      : 6
Overread into Lead-In and Lead-Out          : No
Fill up missing offset samples with silence : Yes
Delete leading and trailing silent blocks   : No
Null samples used in CRC calculations       : Yes
Used interface                              : Native Win32 interface for Win NT & 2000
Used output format              : User Defined Encoder
Selected bitrate                : 1024 kBit/s
Quality                         : High
Add ID3 tag                     : No
Command line compressor         : C:\Program Files (x86)\EAC\WV\wavpack.exe
Additional command line options : -h -hh -m %s %d
TOC of the extracted CD
     Track |   Start  |  Length  | Start sector | End sector
    ---------------------------------------------------------
        1  |  0:00.00 |  3:24.08 |         0    |    15307
        2  |  3:24.08 |  2:42.55 |     15308    |    27512
        3  |  6:06.63 |  2:33.73 |     27513    |    39060
        4  |  8:40.61 |  3:22.51 |     39061    |    54261
        5  | 12:03.37 |  3:03.58 |     54262    |    68044
        6  | 15:07.20 |  2:58.00 |     68045    |    81394
        7  | 18:05.20 |  3:34.41 |     81395    |    97485
        8  | 21:39.61 |  2:33.54 |     97486    |   109014
        9  | 24:13.40 |  2:54.58 |    109015    |   122122
       10  | 27:08.23 |  3:11.14 |    122123    |   136461
       11  | 30:19.37 |  3:15.01 |    136462    |   151087
       12  | 33:34.38 |  2:54.15 |    151088    |   164152
       13  | 36:28.53 |  3:04.36 |    164153    |   177988
       14  | 39:33.14 |  3:19.57 |    177989    |   192970
       15  | 42:52.71 |  2:28.60 |    192971    |   204130
       16  | 45:21.56 |  2:55.33 |    204131    |   217288
       17  | 48:17.14 |  3:02.44 |    217289    |   230982
       18  | 51:19.58 |  3:09.57 |    230983    |   245214
       19  | 54:29.40 |  3:34.05 |    245215    |   261269
Range status and errors
Selected range
     Filename G:\SLADE\2007- B-Sides (2CD UK 2007 Union Square • SALVODCD203)\SLADE - B-Sides (Salvo DCD203) CD2.wav
     Peak level 97.7 %
     Range quality 100.0 %
     Test CRC 8B4471AE
     Copy CRC 8B4471AE
     Copy OK
No errors occurred
AccurateRip summary
Track  1  accurately ripped (confidence 6)  [8E5EE495]
Track  2  accurately ripped (confidence 7)  [4BD8DE01]
Track  3  accurately ripped (confidence 6)  [4C0651D0]
Track  4  accurately ripped (confidence 7)  [915CA4A2]
Track  5  accurately ripped (confidence 6)  [7602F82A]
Track  6  accurately ripped (confidence 6)  [BBDAC99B]
Track  7  accurately ripped (confidence 6)  [BDD1A6C6]
Track  8  accurately ripped (confidence 6)  [AD65C8B0]
Track  9  accurately ripped (confidence 7)  [F1608C7E]
Track 10  accurately ripped (confidence 7)  [87E24BDF]
Track 11  accurately ripped (confidence 6)  [82885917]
Track 12  accurately ripped (confidence 6)  [C641D173]
Track 13  accurately ripped (confidence 7)  [D9F96D9B]
Track 14  accurately ripped (confidence 6)  [4020CB16]
Track 15  accurately ripped (confidence 6)  [2D2AD2A0]
Track 16  accurately ripped (confidence 6)  [A2DB6629]
Track 17  accurately ripped (confidence 6)  [6D0CEE2E]
Track 18  accurately ripped (confidence 6)  [EB5747BB]
Track 19  cannot be verified as accurate (confidence 6)  [9ED98C34], AccurateRip returned [8A699AAA]
18 track(s) accurately ripped
1 track(s) could not be verified as accurate
Some tracks could not be verified as accurate
End of status report

Отчёт auCDtect Task manager:

-----------------------
DON'T MODIFY THIS FILE
-----------------------
PERFORMER: auCDtect Task Manager, ver. 1.5.1RC4 build 1.5.1.5
Copyright (c) 2008-2010 y-soft. All rights reserved
http://y-soft.org
ANALYZER: auCDtect: CD records authenticity detector, version 0.8.2
Copyright (c) 2004 Oleg Berngardt. All rights reserved.
Copyright (c) 2004 Alexander Djourik. All rights reserved.
FILE: SLADE - B-Sides (Salvo DCD203) CD2.wv
  Size: 458004052 Hash: A0F87D89BF9858F24E6D0A5BF6B66AFB Accuracy: -m0
  Conclusion: CDDA 100%
  Signature: A0F03A4172202E31D72D249EB046E462CCD0B0C9
FILE: SLADE - B-Sides (Salvo DCD203) CD1.wv
  Size: 518486050 Hash: 2C638808881191067C0B9556BC08D764 Accuracy: -m0
  Conclusion: CDDA 100%
  Signature: F1D41637ECD59487D72FCFBCF1E51482B1C732BF
(2CD UK 2007 Union Square • SALVODCD205) Barcode : 6 98458 82052 5
Official DR value: DR8, DR7; 2 ? CD, Compilation

Продолжительность: 02:02:45
Трек лист-CD1 (01:02:46)
01. Run Runaway [03:44]
02. Everyday (Live) [03:17]
03. We'll Bring The House Down [03:34]
04. Ruby Red [02:54]
05. C'est La Vie [03:25]
06. Do You Belive In Miracles [04:11]
07. Still The Same [04:12]
08. My Oh My [04:11]
09. All Join Hands [04:14]
10. Wheels Ain't Coming Down [03:36]
11. 7 Year Bitch [04:18]
12. Myzterious Mizster Jones [03:36]
13. Lock Up Your Daughters [03:29]
14. Me And The Boys [02:41]
15. Gudbye To Jane (Live) [04:42]
16. Mama Weer All Crazee Now (Live) [02:58]
17. Love Is Like A Rock [03:36]

CD2

Продолжительность: 00:59:58
Трек лист-01. Sing Shout [03:11]
02. The Roaring Silence [02:48]
03. That Was No Lady That Was My Life [02:36]
04. We Won't Give In [03:36]
05. Razzle Dazzle Man [04:40]
06. Rock And Roll Preacher [05:46]
07. I'll Be There [04:30]
08. Iґm A Rocker [02:42]
09. Slam The Hammer Down [03:25]
10. Ooh La La in L.A. [03:50]
11. Harmony [03:44]
12. Hey Ho Wish You Well [05:18]
13. Hold On To Your Hats [02:33]
14. Cheap 'N'Dusty Luv [03:28]
15. Little Sheila [03:56]
16. When I'm Dancin' I Ain't Fightin' [03:47]

Отчёт ЕАС CD 1:

Exact Audio Copy V0.99 prebeta 5 from 4. May 2009
EAC extraction logfile from 17. May 2012, 7:51
SLADE / The Collection 79-87 (Salvo DCD205) CD1
Used drive  : ASUS    DRW-24B3ST   Adapter: 0  ID: 0
Read mode               : Secure
Utilize accurate stream : Yes
Defeat audio cache      : Yes
Make use of C2 pointers : No
Read offset correction                      : 6
Overread into Lead-In and Lead-Out          : No
Fill up missing offset samples with silence : Yes
Delete leading and trailing silent blocks   : No
Null samples used in CRC calculations       : Yes
Used interface                              : Native Win32 interface for Win NT & 2000
Used output format              : User Defined Encoder
Selected bitrate                : 1024 kBit/s
Quality                         : High
Add ID3 tag                     : No
Command line compressor         : C:\Program Files (x86)\EAC\WV\wavpack.exe
Additional command line options : -h -hh -m %s %d
TOC of the extracted CD
     Track |   Start  |  Length  | Start sector | End sector
    ---------------------------------------------------------
        1  |  0:00.00 |  3:44.73 |         0    |    16872
        2  |  3:44.73 |  3:17.24 |     16873    |    31671
        3  |  7:02.22 |  3:34.61 |     31672    |    47782
        4  | 10:37.08 |  2:54.40 |     47783    |    60872
        5  | 13:31.48 |  3:25.04 |     60873    |    76251
        6  | 16:56.52 |  4:11.68 |     76252    |    95144
        7  | 21:08.45 |  4:12.29 |     95145    |   114073
        8  | 25:20.74 |  4:11.28 |    114074    |   132926
        9  | 29:32.27 |  4:14.67 |    132927    |   152043
       10  | 33:47.19 |  3:36.46 |    152044    |   168289
       11  | 37:23.65 |  4:18.09 |    168290    |   187648
       12  | 41:41.74 |  3:36.40 |    187649    |   203888
       13  | 45:18.39 |  3:29.32 |    203889    |   219595
       14  | 48:47.71 |  2:41.28 |    219596    |   231698
       15  | 51:29.24 |  4:42.07 |    231699    |   252855
       16  | 56:11.31 |  2:58.72 |    252856    |   266277
       17  | 59:10.28 |  3:36.17 |    266278    |   282494
Range status and errors
Selected range
     Filename G:\SLADE\2007- The Slade Collection 79-87 (2CD UK 2007 Union Square • SALVODCD205)\SLADE - The Collection 79-87 (Salvo DCD205) CD1.wav
     Peak level 97.7 %
     Range quality 99.9 %
     Test CRC B2AF6B51
     Copy CRC B2AF6B51
     Copy OK
No errors occurred
AccurateRip summary
Track  1  accurately ripped (confidence 5)  [9A418006]
Track  2  accurately ripped (confidence 4)  [7985556A]
Track  3  accurately ripped (confidence 4)  [6728F5B1]
Track  4  accurately ripped (confidence 4)  [4D5EA890]
Track  5  accurately ripped (confidence 4)  [8BB6B100]
Track  6  accurately ripped (confidence 4)  [90A38027]
Track  7  accurately ripped (confidence 4)  [00CB01A2]
Track  8  accurately ripped (confidence 4)  [5E82A285]
Track  9  accurately ripped (confidence 4)  [9F8ED2FE]
Track 10  accurately ripped (confidence 4)  [D7E4A447]
Track 11  accurately ripped (confidence 4)  [31A3FFFB]
Track 12  accurately ripped (confidence 4)  [FB2EB0E1]
Track 13  accurately ripped (confidence 4)  [21B6183A]
Track 14  accurately ripped (confidence 4)  [EF7D576C]
Track 15  accurately ripped (confidence 4)  [EA944BD9]
Track 16  accurately ripped (confidence 4)  [BDE1D761]
Track 17  accurately ripped (confidence 4)  [31D1E9EE]
All tracks accurately ripped
End of status report

Отчёт ЕАС CD 2:

Exact Audio Copy V0.99 prebeta 5 from 4. May 2009
EAC extraction logfile from 17. May 2012, 7:51
SLADE / The Collection 79-87 (Salvo DCD205) CD2
Used drive  : ASUS    DRW-24B3ST   Adapter: 0  ID: 1
Read mode               : Secure
Utilize accurate stream : Yes
Defeat audio cache      : Yes
Make use of C2 pointers : No
Read offset correction                      : 6
Overread into Lead-In and Lead-Out          : No
Fill up missing offset samples with silence : Yes
Delete leading and trailing silent blocks   : No
Null samples used in CRC calculations       : Yes
Used interface                              : Native Win32 interface for Win NT & 2000
Used output format              : User Defined Encoder
Selected bitrate                : 1024 kBit/s
Quality                         : High
Add ID3 tag                     : No
Command line compressor         : C:\Program Files (x86)\EAC\WV\wavpack.exe
Additional command line options : -h -hh -m %s %d
TOC of the extracted CD
     Track |   Start  |  Length  | Start sector | End sector
    ---------------------------------------------------------
        1  |  0:00.00 |  3:11.34 |         0    |    14358
        2  |  3:11.34 |  2:48.50 |     14359    |    27008
        3  |  6:00.09 |  2:36.26 |     27009    |    38734
        4  |  8:36.35 |  3:36.60 |     38735    |    54994
        5  | 12:13.20 |  4:40.44 |     54995    |    76038
        6  | 16:53.64 |  5:46.52 |     76039    |   102040
        7  | 22:40.41 |  4:30.72 |    102041    |   122362
        8  | 27:11.38 |  2:42.21 |    122363    |   134533
        9  | 29:53.59 |  3:25.39 |    134534    |   149947
       10  | 33:19.23 |  3:50.69 |    149948    |   167266
       11  | 37:10.17 |  3:44.30 |    167267    |   184096
       12  | 40:54.47 |  5:18.10 |    184097    |   207956
       13  | 46:12.57 |  2:33.34 |    207957    |   219465
       14  | 48:46.16 |  3:28.21 |    219466    |   235086
       15  | 52:14.37 |  3:56.73 |    235087    |   252859
       16  | 56:11.35 |  3:47.30 |    252860    |   269914
Range status and errors
Selected range
     Filename G:\SLADE\2007- The Slade Collection 79-87 (2CD UK 2007 Union Square • SALVODCD205)\SLADE - The Collection 79-87 (Salvo DCD205) CD2.wav
     Peak level 97.7 %
     Range quality 100.0 %
     Test CRC 83688D86
     Copy CRC 83688D86
     Copy OK
No errors occurred
AccurateRip summary
Track  1  accurately ripped (confidence 4)  [4B63F40E]
Track  2  accurately ripped (confidence 4)  [0FCB4A77]
Track  3  accurately ripped (confidence 4)  [C8602249]
Track  4  accurately ripped (confidence 4)  [B0FBCEAB]
Track  5  accurately ripped (confidence 4)  [08C641D2]
Track  6  accurately ripped (confidence 4)  [22A0FB52]
Track  7  accurately ripped (confidence 4)  [DC51AF1D]
Track  8  accurately ripped (confidence 4)  [4D601CCA]
Track  9  accurately ripped (confidence 4)  [CC273656]
Track 10  accurately ripped (confidence 4)  [E672D502]
Track 11  accurately ripped (confidence 4)  [5422FF68]
Track 12  accurately ripped (confidence 4)  [524532A7]
Track 13  accurately ripped (confidence 4)  [A99EF7BD]
Track 14  accurately ripped (confidence 4)  [F8BCE97D]
Track 15  accurately ripped (confidence 5)  [E1D447DD]
Track 16  accurately ripped (confidence 4)  [488A8D2B]
All tracks accurately ripped
End of status report

Отчёт auCDtect Task manager:

-----------------------
DON'T MODIFY THIS FILE
-----------------------
PERFORMER: auCDtect Task Manager, ver. 1.5.1RC4 build 1.5.1.5
Copyright (c) 2008-2010 y-soft. All rights reserved
http://y-soft.org
ANALYZER: auCDtect: CD records authenticity detector, version 0.8.2
Copyright (c) 2004 Oleg Berngardt. All rights reserved.
Copyright (c) 2004 Alexander Djourik. All rights reserved.
FILE: SLADE - The Collection 79-87 (Salvo DCD205) CD2.wv
  Size: 455097272 Hash: 10E254F95194FAA53150AC459AA9FDF0 Accuracy: -m0
  Conclusion: CDDA 100%
  Signature: 67E015EE11FDE3DAB16CB744B981B3C981C73520
FILE: SLADE - The Collection 79-87 (Salvo DCD205) CD1.wv
  Size: 464521192 Hash: 7A70AF1D38615F19888F12929E03596D Accuracy: -m0
  Conclusion: CDDA 100%
  Signature: D90AB1BFD8EBE794C037E52E085B6F936268B520

[Цитировать]



Показать сообщения:    

Текущее время: 09-Дек 05:03

Часовой пояс: UTC + 3


Вы не можете начинать темы
Вы не можете отвечать на сообщения
Вы не можете редактировать свои сообщения
Вы не можете удалять свои сообщения
Вы не можете голосовать в опросах
Вы не можете прикреплять файлы к сообщениям
Вы не можете скачивать файлы

!ВНИМАНИЕ!
Сайт не предоставляет электронные версии произведений, а занимается лишь коллекционированием и каталогизацией ссылок, присылаемых и публикуемых на форуме нашими читателями. Если вы являетесь правообладателем какого-либо представленного материала и не желаете, чтобы ссылка на него находилась в нашем каталоге, свяжитесь с нами, и мы незамедлительно удалим ее. Файлы для обмена на трекере предоставлены пользователями сайта, и администрация не несет ответственности за их содержание. Просьба не заливать файлы, защищенные авторскими правами, а также файлы нелегального содержания!