[ Сегодня идет свободное скачивание без начисления Download ]


Статистика раздачи
Нет
 
   
 
Top  
 
 
-Eric Burdon (ex-The Animals) - 'Til Your River Runs Dry - (2013)- Год: 2013
Жанр: Classic Rock/Blues
Издатель (лейбл): ABKCO Music & Records, Inc.
Номер по каталогу: 89062
Кодек: FLAC
Тип рипа: tracks+.cue
Битрейт: Lossless
Продолжительность: 00:55:03
Трек лист:
01. Water 4:20
02. Memorial Day 4:39
03. Devil and Jesus 4:22
04. Wait 3:45
05. Old Habits Die Hard 4:00
06. Bo Diddley Special 5:29
07. In the Ground 4:10
08. 27 Forever 4:27
09. River Is Rising 5:59
10. Medicine Man 4:39
11. Invitation to the White House 5:55
12. Before You Accuse Me 3:13

Дополнительная информация:

Eric Burdon вновь пришёл с новым альбомом. Критики уверяют, что очередная студийная работа мастера - очень личная. Наверно так и есть, если обратить внимание на названия песен и их тематику: "День памяти", "Дьявол и Иисус", "Старые привычки умирают тяжело", "Вода", "На земле" и т.п. Альбом записывался в Новом Орлеане и Южной Калифорнии, где Эрик трудился над своими последними двумя альбомами. Диск спродюсирован самим Эриком и Тони Барнаклем (Tony Barnacle).

Отчёт ЕАС:

Exact Audio Copy V1.0 beta 3 from 29. August 2011
EAC extraction logfile from 6. February 2013, 15:42
Eric Burdon / 'Til Your River Runs Dry
Used drive  : SONY    DVD RW AD-7280S   Adapter: 1  ID: 0
Read mode               : Secure
Utilize accurate stream : Yes
Defeat audio cache      : Yes
Make use of C2 pointers : No
Read offset correction                      : 48
Overread into Lead-In and Lead-Out          : No
Fill up missing offset samples with silence : Yes
Delete leading and trailing silent blocks   : No
Null samples used in CRC calculations       : Yes
Used interface                              : Native Win32 interface for Win NT & 2000
Gap handling                                : Appended to previous track
Used output format              : User Defined Encoder
Selected bitrate                : 1024 kBit/s
Quality                         : High
Add ID3 tag                     : No
Command line compressor         : C:\Program Files (x86)\Exact Audio Copy\FLAC\FLAC.EXE
Additional command line options : -8 -V -T "ARTIST=%artist%" -T "TITLE=%title%" -T "ALBUM=%albumtitle%" -T "DATE=%year%" -T "TRACKNUMBER=%tracknr%" -T "GENRE=%genre%" -T "PERFORMER=%albuminterpret%" -T "COMPOSER=%composer%" %haslyrics%--tag-from-file=LYRICS="%lyricsfile%"%haslyrics% -T "ALBUMARTIST=%albumartist%" -T "DISCNUMBER=%cdnumber%" -T "TOTALDISCS=%totalcds%" -T "TOTALTRACKS=%numtracks%" -T "COMMENT=%comment%" %source% -o %dest%
TOC of the extracted CD
     Track |   Start  |  Length  | Start sector | End sector
    ---------------------------------------------------------
        1  |  0:00.00 |  4:20.61 |         0    |    19560
        2  |  4:20.61 |  4:39.09 |     19561    |    40494
        3  |  8:59.70 |  4:22.01 |     40495    |    60145
        4  | 13:21.71 |  3:45.39 |     60146    |    77059
        5  | 17:07.35 |  4:01.00 |     77060    |    95134
        6  | 21:08.35 |  5:29.28 |     95135    |   119837
        7  | 26:37.63 |  4:10.42 |    119838    |   138629
        8  | 30:48.30 |  4:27.28 |    138630    |   158682
        9  | 35:15.58 |  5:59.32 |    158683    |   185639
       10  | 41:15.15 |  4:39.05 |    185640    |   206569
       11  | 45:54.20 |  5:55.05 |    206570    |   233199
       12  | 51:49.25 |  3:13.55 |    233200    |   247729
Track  1
     Filename G:\__New\_EAC rips\Eric Burdon - 'Til Your River Runs Dry  (2013) flac\01 - Water.wav
     Pre-gap length  0:00:02.00
     Peak level 97.5 %
     Extraction speed 2.6 X
     Track quality 100.0 %
     Test CRC C6F95571
     Copy CRC C6F95571
     Track not present in AccurateRip database
     Copy OK
Track  2
     Filename G:\__New\_EAC rips\Eric Burdon - 'Til Your River Runs Dry  (2013) flac\02 - Memorial Day.wav
     Pre-gap length  0:00:01.49
     Peak level 97.5 %
     Extraction speed 2.9 X
     Track quality 100.0 %
     Test CRC 7CFA9C49
     Copy CRC 7CFA9C49
     Track not present in AccurateRip database
     Copy OK
Track  3
     Filename G:\__New\_EAC rips\Eric Burdon - 'Til Your River Runs Dry  (2013) flac\03 - Devil and Jesus.wav
     Pre-gap length  0:00:01.82
     Peak level 97.5 %
     Extraction speed 3.2 X
     Track quality 100.0 %
     Test CRC 6469B4C1
     Copy CRC 6469B4C1
     Track not present in AccurateRip database
     Copy OK
Track  4
     Filename G:\__New\_EAC rips\Eric Burdon - 'Til Your River Runs Dry  (2013) flac\04 - Wait.wav
     Pre-gap length  0:00:01.72
     Peak level 97.5 %
     Extraction speed 3.3 X
     Track quality 100.0 %
     Test CRC E002F4FA
     Copy CRC E002F4FA
     Track not present in AccurateRip database
     Copy OK
Track  5
     Filename G:\__New\_EAC rips\Eric Burdon - 'Til Your River Runs Dry  (2013) flac\05 - Old Habits Die Hard.wav
     Pre-gap length  0:00:01.00
     Peak level 97.5 %
     Extraction speed 3.1 X
     Track quality 99.9 %
     Test CRC 7179ED36
     Copy CRC 7179ED36
     Track not present in AccurateRip database
     Copy OK
Track  6
     Filename G:\__New\_EAC rips\Eric Burdon - 'Til Your River Runs Dry  (2013) flac\06 - Bo Diddley Special.wav
     Pre-gap length  0:00:02.94
     Peak level 97.5 %
     Extraction speed 3.9 X
     Track quality 100.0 %
     Test CRC 963D4F03
     Copy CRC 963D4F03
     Track not present in AccurateRip database
     Copy OK
Track  7
     Filename G:\__New\_EAC rips\Eric Burdon - 'Til Your River Runs Dry  (2013) flac\07 - In the Ground.wav
     Pre-gap length  0:00:00.73
     Peak level 97.5 %
     Extraction speed 4.0 X
     Track quality 100.0 %
     Test CRC 4F60BEBA
     Copy CRC 4F60BEBA
     Track not present in AccurateRip database
     Copy OK
Track  8
     Filename G:\__New\_EAC rips\Eric Burdon - 'Til Your River Runs Dry  (2013) flac\08 - 27 Forever.wav
     Pre-gap length  0:00:01.58
     Peak level 97.5 %
     Extraction speed 4.2 X
     Track quality 100.0 %
     Test CRC 5F5935E4
     Copy CRC 5F5935E4
     Track not present in AccurateRip database
     Copy OK
Track  9
     Filename G:\__New\_EAC rips\Eric Burdon - 'Til Your River Runs Dry  (2013) flac\09 - River is Rising.wav
     Pre-gap length  0:00:01.86
     Peak level 97.5 %
     Extraction speed 4.5 X
     Track quality 100.0 %
     Test CRC AA5F8CD1
     Copy CRC AA5F8CD1
     Track not present in AccurateRip database
     Copy OK
Track 10
     Filename G:\__New\_EAC rips\Eric Burdon - 'Til Your River Runs Dry  (2013) flac\10 - Medicine Man.wav
     Pre-gap length  0:00:01.34
     Peak level 97.5 %
     Extraction speed 4.7 X
     Track quality 100.0 %
     Test CRC 2BD9331A
     Copy CRC 2BD9331A
     Track not present in AccurateRip database
     Copy OK
Track 11
     Filename G:\__New\_EAC rips\Eric Burdon - 'Til Your River Runs Dry  (2013) flac\11 - Invitation to the White House.wav
     Pre-gap length  0:00:01.89
     Peak level 97.5 %
     Extraction speed 5.0 X
     Track quality 100.0 %
     Test CRC 5FFB0D23
     Copy CRC 5FFB0D23
     Track not present in AccurateRip database
     Copy OK
Track 12
     Filename G:\__New\_EAC rips\Eric Burdon - 'Til Your River Runs Dry  (2013) flac\12 - Before You Accuse Me.wav
     Pre-gap length  0:00:02.14
     Peak level 97.5 %
     Extraction speed 4.7 X
     Track quality 100.0 %
     Test CRC B23DE002
     Copy CRC B23DE002
     Track not present in AccurateRip database
     Copy OK
None of the tracks are present in the AccurateRip database
No errors occurred
End of status report
==== Log checksum F796DD4EAD85916960C514538F155A03DE9E60DB495A7E8704E554E382DA9184 ====

Отчёт auCDtect Task manager:

-----------------------
DON'T MODIFY THIS FILE
-----------------------
PERFORMER: auCDtect Task Manager, ver. 1.5.1RC3 build 1.5.1.4
Copyright (c) 2008-2010 y-soft. All rights reserved
http://y-soft.org
ANALYZER: auCDtect: CD records authenticity detector, version 0.8.2
Copyright (c) 2004 Oleg Berngardt. All rights reserved.
Copyright (c) 2004 Alexander Djourik. All rights reserved.
FILE: 12 - Before You Accuse Me.flac
  Size: 20881800 Hash: 6D2CCBE61A7DDD8983C2433C30BCF0B9 Accuracy: -m0
  Conclusion: CDDA 100%
  Signature: C25F890ACE9A377851E5C66AEDE187FA08EE8FEA
FILE: 11 - Invitation to the White House.flac
  Size: 36466566 Hash: 80CAB563D1A9274B4319C86599D92002 Accuracy: -m0
  Conclusion: CDDA 100%
  Signature: 4E6C3ED7C6D77897CC29E08BA6C87C3DB1315CAE
FILE: 10 - Medicine Man.flac
  Size: 28583012 Hash: 1E856BB052E5CF169C52DD716BD06C85 Accuracy: -m0
  Conclusion: CDDA 100%
  Signature: BE66D34D1E0034692CDC1A4622741F45AFB4C047
FILE: 09 - River is Rising.flac
  Size: 41859821 Hash: AB02045D4A2413ACEAE5640FE5E499F4 Accuracy: -m0
  Conclusion: CDDA 100%
  Signature: 8C623BF518E4A9E779D75B1F0F0CD669C2EC657D
FILE: 08 - 27 Forever.flac
  Size: 28789346 Hash: 6C824143DDE10F35B2419A136956AC0E Accuracy: -m0
  Conclusion: CDDA 100%
  Signature: 7BC9354EB62387E39B1519B858EDD2C84C718FF0
FILE: 07 - In the Ground.flac
  Size: 26229228 Hash: FE7D9F199D0D956B44BF65A92B376A86 Accuracy: -m0
  Conclusion: CDDA 100%
  Signature: 2A1AA3606375FDCF25A3D0F6E66284D7805BA6A2
FILE: 06 - Bo Diddley Special.flac
  Size: 36160173 Hash: 6F4AF7845FC750F61469F26A910A3296 Accuracy: -m0
  Conclusion: CDDA 100%
  Signature: 178285601669EDB0CCDFBD285B2749C2ABCB4FD9
FILE: 05 - Old Habits Die Hard.flac
  Size: 29033248 Hash: 229F7F17D16CD3353426912A3E3F718C Accuracy: -m0
  Conclusion: CDDA 100%
  Signature: B17E5550A6AFE1949E4B4776B2231A52E197ED01
FILE: 04 - Wait.flac
  Size: 23428005 Hash: 7E52502D81D62E3F8CF7A4AAC6D498BD Accuracy: -m0
  Conclusion: CDDA 100%
  Signature: 76F8AE2D6B69A9F32AEF8B0F933AD13B209998EA
FILE: 03 - Devil and Jesus.flac
  Size: 26019796 Hash: C4934453FD5416B756C768F8FF8DC290 Accuracy: -m0
  Conclusion: CDDA 100%
  Signature: 45E7267B8C3068FD6C437D588ACCDE1DC8E9884F
FILE: 02 - Memorial Day.flac
  Size: 31300017 Hash: 691D099FFF8A7CBDC5A118A858BEB040 Accuracy: -m0
  Conclusion: CDDA 100%
  Signature: 0E3E20F5F54EC9DA9C531CED7D2E4C66BE14AA1E
FILE: 01 - Water.flac
  Size: 30726809 Hash: 7F72A296D0F49A1126828C281421355B Accuracy: -m0
  Conclusion: CDDA 100%
  Signature: 4979E6FD6E02A1DBA48C447C2FE7BCF7A44E1603

Содержание индексной карты (.CUE):

REM GENRE Rock
REM DATE 2013
REM DISCID 960CE70C
REM COMMENT "ExactAudioCopy v1.0b3"
CATALOG 0018771892724
PERFORMER "Eric Burdon"
TITLE "'Til Your River Runs Dry"
FILE "01 - Water.flac" WAVE
  TRACK 01 AUDIO
    TITLE "Water"
    PERFORMER "Eric Burdon"
    ISRC USA171260001
    INDEX 01 00:00:00
  TRACK 02 AUDIO
    TITLE "Memorial Day"
    PERFORMER "Eric Burdon"
    ISRC USA171260000
    INDEX 00 04:19:24
FILE "02 - Memorial Day.flac" WAVE
    INDEX 01 00:00:00
  TRACK 03 AUDIO
    TITLE "Devil and Jesus"
    PERFORMER "Eric Burdon"
    ISRC USA171260002
    INDEX 00 04:37:22
FILE "03 - Devil and Jesus.flac" WAVE
    INDEX 01 00:00:00
  TRACK 04 AUDIO
    TITLE "Wait"
    PERFORMER "Eric Burdon"
    ISRC USA171260003
    INDEX 00 04:20:22
FILE "04 - Wait.flac" WAVE
    INDEX 01 00:00:00
  TRACK 05 AUDIO
    TITLE "Old Habits Die Hard"
    PERFORMER "Eric Burdon"
    ISRC USA171260004
    INDEX 00 03:44:39
FILE "05 - Old Habits Die Hard.flac" WAVE
    INDEX 01 00:00:00
  TRACK 06 AUDIO
    TITLE "Bo Diddley Special"
    PERFORMER "Eric Burdon"
    ISRC USA171260005
    INDEX 00 03:58:04
FILE "06 - Bo Diddley Special.flac" WAVE
    INDEX 01 00:00:00
  TRACK 07 AUDIO
    TITLE "In the Ground"
    PERFORMER "Eric Burdon"
    ISRC USA171260006
    INDEX 00 05:28:48
FILE "07 - In the Ground.flac" WAVE
    INDEX 01 00:00:00
  TRACK 08 AUDIO
    TITLE "27 Forever"
    PERFORMER "Eric Burdon"
    ISRC USA171260007
    INDEX 00 04:08:73
FILE "08 - 27 Forever.flac" WAVE
    INDEX 01 00:00:00
  TRACK 09 AUDIO
    TITLE "River is Rising"
    PERFORMER "Eric Burdon"
    ISRC USA171260008
    INDEX 00 04:25:38
FILE "09 - River is Rising.flac" WAVE
    INDEX 01 00:00:00
  TRACK 10 AUDIO
    TITLE "Medicine Man"
    PERFORMER "Eric Burdon"
    ISRC USA171260009
    INDEX 00 05:58:06
FILE "10 - Medicine Man.flac" WAVE
    INDEX 01 00:00:00
  TRACK 11 AUDIO
    TITLE "Invitation to the White House"
    PERFORMER "Eric Burdon"
    ISRC USA171260010
    INDEX 00 04:37:13
FILE "11 - Invitation to the White House.flac" WAVE
    INDEX 01 00:00:00
  TRACK 12 AUDIO
    TITLE "Before You Accuse Me"
    PERFORMER "Eric Burdon"
    ISRC USA171260011
    INDEX 00 05:52:69
FILE "12 - Before You Accuse Me.flac" WAVE
    INDEX 01 00:00:00
Время раздачи: с10:00 до 23:00

[Цитировать]



Показать сообщения:    

Текущее время: 05-Дек 23:37

Часовой пояс: UTC + 3


Вы не можете начинать темы
Вы не можете отвечать на сообщения
Вы не можете редактировать свои сообщения
Вы не можете удалять свои сообщения
Вы не можете голосовать в опросах
Вы не можете прикреплять файлы к сообщениям
Вы не можете скачивать файлы

!ВНИМАНИЕ!
Сайт не предоставляет электронные версии произведений, а занимается лишь коллекционированием и каталогизацией ссылок, присылаемых и публикуемых на форуме нашими читателями. Если вы являетесь правообладателем какого-либо представленного материала и не желаете, чтобы ссылка на него находилась в нашем каталоге, свяжитесь с нами, и мы незамедлительно удалим ее. Файлы для обмена на трекере предоставлены пользователями сайта, и администрация не несет ответственности за их содержание. Просьба не заливать файлы, защищенные авторскими правами, а также файлы нелегального содержания!