[ Сегодня идет свободное скачивание без начисления Download ]


Статистика раздачи
Нет
 
   
 
Top  
 
 
-Beth Hart & Joe Bonamassa - Don't Explain (Limited Edition) (2011)- Год: 2011
Жанр: Blues Rock
Издатель: Provogue & Mascot Label Group {PRD 7385 2}
Страна изготовитель: Netherlands
Продолжительность: 01:05:34
Кодек: FLAC
Битрейт: Lossless
Источник: Web
Трек лист:
01. Sinner's Prayer [04:29]
02. Chocolate Jesus [02:40]
03. Your Heart Is As Black As Night [05:01]
04. For My Friend [04:12]
05. Don't Explain [04:35]
06. I'd Rather Go Blind [08:07]
07. Something's Got A Hold On Me [06:05]
08. I'll Take Care Of You [05:13]
09. Well, well [03:42]
10. Ain't No Way [06:50]
.....Bonus Live Tracks: Beth Hart Solo Acoustic
11. I'll Take Care Of You - Live Acoustic [03:20]
12. Chocolate Jesus - Live Acoustic [02:22]
13. LA Song - Live Acoustic [04:19]
14. At The Bottom - Live Acoustic [04:39]

Отчёт ЕАС:

Exact Audio Copy V1.0 beta 1 from 15. November 2010
EAC extraction logfile from 30. June 2012, 9:22
Beth Hart & Joe Bonamassa / Don't Explain (Limited Edition) (PRD7385 2)
Used drive  : Optiarc DVD RW AD-5200S   Adapter: 2  ID: 0
Read mode               : Secure
Utilize accurate stream : Yes
Defeat audio cache      : Yes
Make use of C2 pointers : No
Read offset correction                      : 48
Overread into Lead-In and Lead-Out          : No
Fill up missing offset samples with silence : Yes
Delete leading and trailing silent blocks   : No
Null samples used in CRC calculations       : Yes
Used interface                              : Native Win32 interface for Win NT & 2000
Used output format              : User Defined Encoder
Selected bitrate                : 1024 kBit/s
Quality                         : High
Add ID3 tag                     : No
Command line compressor         : C:\Program Files (x86)\Exact Audio Copy\FLAC\FLAC.EXE
Additional command line options : -8 -V %s
TOC of the extracted CD
     Track |   Start  |  Length  | Start sector | End sector
    ---------------------------------------------------------
        1  |  0:00.00 |  4:29.00 |         0    |    20174
        2  |  4:29.00 |  2:39.72 |     20175    |    32171
        3  |  7:08.72 |  5:00.66 |     32172    |    54737
        4  | 12:09.63 |  4:11.41 |     54738    |    73603
        5  | 16:21.29 |  4:34.41 |     73604    |    94194
        6  | 20:55.70 |  8:06.58 |     94195    |   130702
        7  | 29:02.53 |  6:05.29 |    130703    |   158106
        8  | 35:08.07 |  5:13.07 |    158107    |   181588
        9  | 40:21.14 |  3:42.24 |    181589    |   198262
       10  | 44:03.38 |  6:49.69 |    198263    |   229006
       11  | 50:53.32 |  3:19.52 |    229007    |   243983
       12  | 54:13.09 |  2:21.60 |    243984    |   254618
       13  | 56:34.69 |  4:19.07 |    254619    |   274050
       14  | 60:54.01 |  4:38.73 |    274051    |   294973
Range status and errors
Selected range
     Filename G:\Download\Музыка LossLess\Joe Bonamassa\Collaboration albums\2011 - Beth Hart & Joe Bonamassa - Don't Explain (Limited Edition) [2011, Provogue Records -  PRD 7385 2]\Beth Hart & Joe Bonamassa - Don't Explain (Limited Edition) (PRD7385 2).wa
     Peak level 99.9 %
     Extraction speed 0.2 X
     Range quality 99.9 %
     Test CRC 8B81F27E
     Copy CRC 8B81F27E
     Copy OK
No errors occurred
AccurateRip summary
Track  1  not present in database
Track  2  not present in database
Track  3  accurately ripped (confidence 2)  [95F0FB2C]
Track  4  accurately ripped (confidence 2)  [F4DD6047]
Track  5  accurately ripped (confidence 2)  [9BC71996]
Track  6  accurately ripped (confidence 2)  [0EE1F8C5]
Track  7  accurately ripped (confidence 2)  [55B9356F]
Track  8  accurately ripped (confidence 2)  [390CDFA5]
Track  9  accurately ripped (confidence 2)  [617942FC]
Track 10  accurately ripped (confidence 2)  [837AD8C7]
Track 11  accurately ripped (confidence 2)  [BDC6B19D]
Track 12  accurately ripped (confidence 2)  [E99D1A78]
Track 13  accurately ripped (confidence 2)  [A07ED4AF]
Track 14  accurately ripped (confidence 2)  [F4CCB5FF]
12 track(s) accurately ripped
2 track(s) not present in the AccurateRip database
Some tracks could not be verified as accurate
End of status report

Отчёт auCDtect Task manager:

-----------------------
DON'T MODIFY THIS FILE
-----------------------
PERFORMER: auCDtect Task Manager, ver. 1.5.1RC6 build 1.5.1.7
Copyright (c) 2008-2010 y-soft. All rights reserved
http://y-soft.org
ANALYZER: auCDtect: CD records authenticity detector, version 0.8.2
Copyright (c) 2004 Oleg Berngardt. All rights reserved.
Copyright (c) 2004 Alexander Djourik. All rights reserved.
FILE: Beth Hart & Joe Bonamassa - Don't Explain (Limited Edition) (PRD7385 2).flac
  Size: 396522320 Hash: F680C6F7DF54B7A53E2C039D92048457 Accuracy: -m0
  Conclusion: CDDA 99%
  Signature: D07DFE12DB0307386028910B90CD3110D5197E7F
Время раздачи: 24/7

[Цитировать]



Показать сообщения:    

Текущее время: 07-Дек 00:53

Часовой пояс: UTC + 3


Вы не можете начинать темы
Вы не можете отвечать на сообщения
Вы не можете редактировать свои сообщения
Вы не можете удалять свои сообщения
Вы не можете голосовать в опросах
Вы не можете прикреплять файлы к сообщениям
Вы не можете скачивать файлы

!ВНИМАНИЕ!
Сайт не предоставляет электронные версии произведений, а занимается лишь коллекционированием и каталогизацией ссылок, присылаемых и публикуемых на форуме нашими читателями. Если вы являетесь правообладателем какого-либо представленного материала и не желаете, чтобы ссылка на него находилась в нашем каталоге, свяжитесь с нами, и мы незамедлительно удалим ее. Файлы для обмена на трекере предоставлены пользователями сайта, и администрация не несет ответственности за их содержание. Просьба не заливать файлы, защищенные авторскими правами, а также файлы нелегального содержания!