[ Сегодня идет свободное скачивание без начисления Download ]


Статистика раздачи
Нет
 
   
 
Top  
 
 
-Безболезненный / Insensibles (2012) BDRip- Русское название: Безболезненный
Оригинальное название: Insensibles
Год выпуска: 2012
Производство: Испания, Франция, Португалия / A Contracorriente Films
Жанр: Драма, Триллер, Детектив
Перевод: Одноголосый закадровый, любительский
Озвучка / Автор перевода: den904
Субтитры: Нет
Режиссер: Хуан Карлос Медина / Juan Carlos Medina
Актеры: Ирене Монтала, Дерек де Линт, Феликс Гомес ,Томас Лемаркус, Хуан Диего, Алекс Брендемюль, Ричард Феликс, Беа Сегура ,Луис Соле, Сильвия Бел
Описание фильма:
Группа детей, нечувствительных к боли, содержится во время испанской гражданской войны в седце Пиреней. В наши дни блестящий нейрохирург обнаруживает, что у него опухоль и отправляется на поиски биологических родителей, чтобы получить костный мозг для пересадки. По ходу путешествия он узнает ужасные тайны прошлого своей страны.- -
Дата мировой премьеры: 8 сентября 2012
Продолжительность: 01:41:23
Качество видео: BDRip 720p
Видеокодек: MPEG-4 AVC/H.264
Видео: H.264, 6055 kb/s, 1280x544, 25.000 fps
Аудио #1: Русский: AC3, 448 kb/s, 5.1 - одноголосый закадровый
Аудио #2: Французский: DTS, 1536 kb/s, 5.1

MediaInfo:

Общее
Уникальный идентификатор : 222217128102019246706148681655880776007 (0xA72D764D4862E68D86F26F2695EBF947)
Полное имя : D:\Video\Insensibles.2012.BDRip.720p.ac3.dts.Rus.Fre.mkv
Формат : Matroska
Версия формата : Version 4 / Version 2
Размер файла : 5,66 Гбайт
Продолжительность : 1 ч. 41 м.
Общий поток : 8014 Кбит/сек
Дата кодирования : UTC 2013-03-17 16:04:34
Программа кодирования : mkvmerge v6.1.0 ('Old Devil') built on Mar 2 2013 14:32:37
Библиотека кодирования : libebml v1.3.0 + libmatroska v1.4.0
Видео
Идентификатор : 1
Формат : AVC
Формат/Информация : Advanced Video Codec
Профиль формата : High@L4.1
Параметр CABAC формата : Да
Параметр ReFrames формата : 12 кадров
Идентификатор кодека : V_MPEG4/ISO/AVC
Продолжительность : 1 ч. 41 м.
Битрейт : 6055 Кбит/сек
Ширина : 1280 пикселей
Высота : 544 пикселя
Соотношение сторон : 2,35:1
Режим частоты кадров : Переменный
Частота кадров : 25,000 кадров/сек
Цветовое пространство : YUV
Субдискретизация насыщенности : 4:2:0
Битовая глубина : 8 бит
Тип развёртки : Прогрессивная
Бит/(Пиксели*Кадры) : 0.348
Размер потока : 4,17 Гбайт (74%)
Заголовок : French
Библиотека кодирования : x264 core 129
Настройки программы : cabac=1 / ref=12 / deblock=1:-3:-3 / analyse=0x3:0 / me=umh / subme=11 / psy=1 / psy_rd=1,00:0,00 / mixed_ref=1 / me_range=64 / chroma_me=1 / trellis=2 / 8x8dct=1 / cqm=0 / deadzone=21,11 / fast_pskip=0 / chroma_qp_offset=-2 / threads=18 / lookahead_threads=3 / sliced_threads=0 / nr=0 / decimate=1 / interlaced=0 / bluray_compat=0 / constrained_intra=0 / bframes=5 / b_pyramid=2 / b_adapt=2 / b_bias=0 / direct=3 / weightb=1 / open_gop=0 / weightp=2 / keyint=250 / keyint_min=25 / scenecut=40 / intra_refresh=0 / rc_lookahead=250 / rc=2pass / mbtree=1 / bitrate=6055 / ratetol=1,0 / qcomp=0,60 / qpmin=4 / qpmax=69 / qpstep=4 / cplxblur=20,0 / qblur=0,5 / ip_ratio=1,40 / aq=1:1,00
Язык : French
Default : Да
Forced : Нет
Основные цвета : BT.709-5, BT.1361, IEC 61966-2-4, SMPTE RP177
Характеристики трансфера : BT.709-5, BT.1361
Коэффициенты матрицы : BT.709-5, BT.1361, IEC 61966-2-4 709, SMPTE RP177
Аудио #1
Идентификатор : 2
Формат : AC-3
Формат/Информация : Audio Coding 3
Расширение режима : CM (complete main)
Идентификатор кодека : A_AC3
Продолжительность : 1 ч. 41 м.
Вид битрейта : Постоянный
Битрейт : 448 Кбит/сек
Каналы : 6 каналов
Расположение каналов : Front: L C R, Side: L R, LFE
Частота : 48,0 КГц
Битовая глубина : 16 бит
Метод сжатия : С потерями
Размер потока : 324 Мбайт (6%)
Язык : Russian
Default : Да
Forced : Да
Аудио #2
Идентификатор : 3
Формат : DTS
Формат/Информация : Digital Theater Systems
Идентификатор кодека : A_DTS
Продолжительность : 1 ч. 41 м.
Вид битрейта : Постоянный
Битрейт : 1510 Кбит/сек
Каналы : 6 каналов
Расположение каналов : Front: L C R, Side: L R, LFE
Частота : 48,0 КГц
Битовая глубина : 16 бит
Метод сжатия : С потерями
Размер потока : 1,07 Гбайт (19%)
Заголовок : French
Язык : French
Default : Нет
Forced : Нет
Скриншоты:

Время раздачи: с 10:00 до 20:00 (GMT+2) - до 10 скачавших

[Цитировать]



Показать сообщения:    

Текущее время: 11-Дек 12:53

Часовой пояс: UTC + 3


Вы не можете начинать темы
Вы не можете отвечать на сообщения
Вы не можете редактировать свои сообщения
Вы не можете удалять свои сообщения
Вы не можете голосовать в опросах
Вы не можете прикреплять файлы к сообщениям
Вы не можете скачивать файлы

!ВНИМАНИЕ!
Сайт не предоставляет электронные версии произведений, а занимается лишь коллекционированием и каталогизацией ссылок, присылаемых и публикуемых на форуме нашими читателями. Если вы являетесь правообладателем какого-либо представленного материала и не желаете, чтобы ссылка на него находилась в нашем каталоге, свяжитесь с нами, и мы незамедлительно удалим ее. Файлы для обмена на трекере предоставлены пользователями сайта, и администрация не несет ответственности за их содержание. Просьба не заливать файлы, защищенные авторскими правами, а также файлы нелегального содержания!