[ Сегодня идет свободное скачивание без начисления Download ]


Статистика раздачи
Нет
 
   
 
Top  
 
 
-Медальон / Stolen (2012) BDRip «12 часов, $10 миллионов, 1 похищенная дочь»- Русское название: Медальон
Оригинальное название: Stolen
Год выпуска: 2012
Производство: США, Millennium Films
Жанр: Боевик, Драма, Триллер-Перевод: Многоголосый закадровый
Язык:Украинский-Описание фильма:
Британец Саймон Уэст – уже признанный мастер в Голливуде. И работает в последнее время, в основном, со звездами. В предыдущем фильме, который только что появился на экранах, – Неудержимые 2 – засветились Сильвестр Сталлоне, Шварценеггер, Ван Дамм и еще куча знаменитостей. В фильме, Медальон в хорошем качестве, также хватает звезд. Назовем хотя бы Николаса Кейджа, Дэнни Хьюстон и Малин Акерман. По сюжету Кейдж и Акерман – отец и дочь. А теперь представим себе ситуацию. Заслуженный работник криминальных дел, вор в законе Уил Молтгомери решает, что уже изрядно пограбил своих сограждан, да и силы уже не те. Вот он и решает уйти на покой для того, чтобы посвятить себя заботе о своей ненаглядной дочурке. В глазах юной девушки он должен выглядеть безупречным джентльменом, чтобы быть для нее примером в уже взрослой жизни. Не тут-то было.
Преступный мир не хочет расставаться со своим авторитетом. Точнее, некоторые бывшие знакомцы Молтгомери решают, что раз уж вор решил завязать, то он должен за это заплатить. И очень немалую сумму – 10 миллионов долларов. Как этого добиться? Злодеи решают ударить по самому уязвимому месту своего бывшего подельника – похищают любимую дочь. И требуют выкупа, варварски разместив свою заложницу в багажнике авто.
Лучше бы они этого не делали! Герой Николаса Кейджа моментально приходит в ярость. Он наводит былые мосты с криминальным миром, где его по-прежнему уважают. И всего за десять часов, которые есть в его распоряжении, идет по следу похитителей с упорством и чутьем самых матерых копов.
Сами понимаете, что шансов на спасение у тех брателло, которые решили поставить на колени вора в законе, практически нет. Уил Молтгомери находит дочурку, супостаты наказаны. Казалось бы, банальный сюжет, но…
В том-то и сила Саймона Уэста как режиссера, что он не берется за примитивные сценарии. Медальон в этом плане – не исключение. Каждый из героев обладает индивидуальным характером, привычками. Притом, что по жанру фильм является боевиком, в нем есть нерв, который и в плане психологии держит зрителя на крючке буквально с первых минут.
Ну, а Николас Кейдж лишний раз доказал, что талантливый актер способен сделать привлекательным для публики любого своего героя. Даже если он всего-навсего отставной вор в законе.-Режиссер: Саймон Уэст
Продюсер: Рене Бессон, Мэттью Джойнс, Джесси Кеннеди
Актеры: Николас Кейдж, Малин Акерман, Джош Лукас, Дэнни Хьюстон, Грант Кейс, Дж.Д. Эвермор, М. К. Гейни, Марк Вэлли, Сами Гэйл, Танк Сейд-Дата мировой премьеры: 6 сентября 2012
Дата российской премьеры: 6 сентября 2012, «Парадиз»
Дата выхода DVD релиза: 9 октября 2012, «Парадиз Медиа»- -Продолжительность: 01:35:50
Качество видео: BDRip-Видеокодек: Xvid
Битрейт видео: ~1711 кб/с
Размер кадра: 720х400
Аудиокодек: MP3
Битрейт аудио: 192 кб/с
Сэмпл: Скачать

MediaInfo

D:\Films\?????? (DVDRip,HD)\Stolen (2012) BDRip Mic.avi
General
Complete name : D:\Films\?????? (DVDRip,HD)\Stolen (2012) BDRip Mic.avi
Format : AVI
Format/Info : Audio Video Interleave
File size : 1.28 GiB
Duration : 1h 35mn
Overall bit rate : 1 912 Kbps
Video #0
ID : 0
Format : MPEG-4 Visual
Format profile : Advanced [email protected]
Format settings, BVOP : 2
Format settings, QPel : No
Format settings, GMC : No warppoints
Format settings, Matrix : Default (H.263)
Muxing mode : Packed bitstream
Codec ID : XVID
Codec ID/Hint : XviD
Duration : 1h 35mn
Bit rate : 1 711 Kbps
Width : 720 pixels
Height : 400 pixels
Display aspect ratio : 16:9
Frame rate : 24.000 fps
Color space : YUV
Chroma subsampling : 4:2:0
Bit depth : 8 bits
Scan type : Progressive
Compression mode : Lossy
Bits/(Pixel*Frame) : 0.248
Stream size : 1.15 GiB (89%)
Writing library : XviD 1.2.1 (UTC 2008-12-04)
Audio #1
ID : 1
Format : MPEG Audio
Format version : Version 1
Format profile : Layer 3
Mode : Joint stereo
Mode extension : MS Stereo
Codec ID : 55
Codec ID/Hint : MP3
Duration : 1h 35mn
Bit rate mode : Constant
Bit rate : 192 Kbps
Channel(s) : 2 channels
Sampling rate : 44.1 KHz
Compression mode : Lossy
Stream size : 132 MiB (10%)
Alignment : Split accross interleaves
Interleave, duration : 42 ms (1.00 video frame)
Writing library : LAME3.98.2
-Скриншоты:

Все скриншоты


-Приятного просмотра и не забивайте оставаться на раздаче-Время раздачи: с 17:00 до 23:00

[Цитировать]

Топик был перенесен из форума Новинки кинопроката в форум Боевик
Henkok



Показать сообщения:    

Текущее время: 04-Дек 19:21

Часовой пояс: UTC + 3


Вы не можете начинать темы
Вы не можете отвечать на сообщения
Вы не можете редактировать свои сообщения
Вы не можете удалять свои сообщения
Вы не можете голосовать в опросах
Вы не можете прикреплять файлы к сообщениям
Вы не можете скачивать файлы

!ВНИМАНИЕ!
Сайт не предоставляет электронные версии произведений, а занимается лишь коллекционированием и каталогизацией ссылок, присылаемых и публикуемых на форуме нашими читателями. Если вы являетесь правообладателем какого-либо представленного материала и не желаете, чтобы ссылка на него находилась в нашем каталоге, свяжитесь с нами, и мы незамедлительно удалим ее. Файлы для обмена на трекере предоставлены пользователями сайта, и администрация не несет ответственности за их содержание. Просьба не заливать файлы, защищенные авторскими правами, а также файлы нелегального содержания!