[ Сегодня идет свободное скачивание без начисления Download ]


Статистика раздачи
Нет
 
   
 
Top  
 
 
-Звездный десант 2: Герой федерации / Starship Troopers 2: Hero of the Federation (2004) BDRip [H.264/720p-LQ]- Русское название: Звездный десант 2: Герой федерации
Оригинальное название: Starship Troopers 2: Hero of the Federation
Год выпуска: 2004
Жанр: Приключения, Фантастика
Описание фильма:
Войска Земной Федерации переходят в контрнаступление и успешно уничтожают колонии злобных инсектойдов.
Но твари не cдаются — они разработали мощное биологическое оружие, способное уничтожить землян…
Режиссер: Фил Типпетт
Актеры: Билли Браун, Ричард Берджи, Келли Карлсон, Сай Картер, Сандрин Холт, Эд Лотер, Жан-Поль Ману, Лоуренс Моносон, Коллин Порш, Дрю Пауэлл
Продолжительность: 01:31:36
Перевод: Многоголосый закадровый

Видеокодек: AVC
Битрейт видео: ~3034 kbps
Размер кадра: 1280x714
Качество видео: BDRip
Аудиокодек: AC3 5.1
Битрейт аудио: 384 kbps

MediaInfo

Общее
Уникальный идентификатор                 : 240540913119348794176864966387808969301 (0xB4F67EA774CF8BE796D3656D5501A255)
Полное имя                               : Starship_Troopers_2.mkv
Формат                                   : Matroska
Версия формата                           : Version 4 / Version 2
Размер файла                             : 2,19 Гбайт
Продолжительность                        : 1 ч. 31 м.
Общий поток                              : 3419 Кбит/сек
Дата кодирования                         : UTC 2013-03-12 21:26:29
Программа кодирования                    : mkvmerge v6.0.0 ('Coming Up For Air') built on Jan 20 2013 09:52:00
Библиотека кодирования                   : libebml v1.3.0 + libmatroska v1.4.0
Видео
Идентификатор                            : 2
Формат                                   : AVC
Формат/Информация                        : Advanced Video Codec
Профиль формата                          : [url=mailto:[email protected]][email protected][/url]
Параметр CABAC формата                   : Да
Параметр ReFrames формата                : 4 кадра
Идентификатор кодека                     : V_MPEG4/ISO/AVC
Продолжительность                        : 1 ч. 31 м.
Битрейт                                  : 3034 Кбит/сек
Ширина                                   : 1280 пикселей
Высота                                   : 714 пикселей
Соотношение сторон                       : 16:9
Соотношение сторон в оригинале           : 16:9
Режим частоты кадров                     : Постоянный
Частота кадров                           : 23,976 кадра/сек
Цветовое пространство                    : YUV
Субдискретизация насыщенности            : 4:2:0
Битовая глубина                          : 8 бит
Тип развёртки                            : Прогрессивная
Бит/(Пиксели*Кадры)                      : 0.138
Размер потока                            : 1,90 Гбайт (87%)
Библиотека кодирования                   : x264 core 129 r2245 bc13772
Настройки программы                      : cabac=1 / ref=3 / deblock=1:0:0 / analyse=0x3:0x133 / me=hex / subme=7 / psy=1 / psy_rd=1.00:0.00 / mixed_ref=1 / me_range=16 / chroma_me=1 / trellis=1 / 8x8dct=1 / cqm=0 / deadzone=21,11 / fast_pskip=1 / chroma_qp_offset=-2 / threads=6 / lookahead_threads=1 / sliced_threads=0 / nr=0 / decimate=1 / interlaced=0 / bluray_compat=0 / constrained_intra=0 / bframes=3 / b_pyramid=2 / b_adapt=1 / b_bias=0 / direct=1 / weightb=1 / open_gop=0 / weightp=2 / keyint=240 / keyint_min=23 / scenecut=40 / intra_refresh=0 / rc_lookahead=40 / rc=2pass / mbtree=1 / bitrate=3034 / ratetol=1.0 / qcomp=0.60 / qpmin=0 / qpmax=69 / qpstep=4 / cplxblur=20.0 / qblur=0.5 / ip_ratio=1.40 / aq=1:1.00
Язык                                     : English
Default                                  : Да
Forced                                   : Нет
Аудио
Идентификатор                            : 1
Формат                                   : AC-3
Формат/Информация                        : Audio Coding 3
Расширение режима                        : CM (complete main)
Параметр Endianness формата              : Big
Идентификатор кодека                     : A_AC3
Продолжительность                        : 1 ч. 31 м.
Вид битрейта                             : Постоянный
Битрейт                                  : 384 Кбит/сек
Каналы                                   : 6 каналов
Расположение каналов                     : Front: L C R, Side: L R, LFE
Частота                                  : 48,0 КГц
Битовая глубина                          : 16 бит
Метод сжатия                             : С потерями
Размер потока                            : 252 Мбайт (11%)
Default                                  : Да
Forced                                   : Нет
Скриншоты:

Рецензия, отзыв о фильме

Редкостная дешевка! Здесь плохо буквально все, начиная с актерской игры, сравнимой разве что с работой кофейных автоматов в преддверии очередного ремонта, и заканчивая любым, попавшимся на глаза, кадром, каждый из которых насыщен всеми оттенками серого и коричневого.
После Пола Верховена вообще снимать как-то глупо, ибо в лучшем случае получится хуже оригинала. Яркий пример светлого разума великого визионера, способного даже из комерческого проекта сотворить настоящий шедевр, очевидно, не давал покоя создателям данной картины, в результате чего зрители получили отличный пример того, как невозможное с легкостью превращается в недопустимое.
Теперь, благодаря сему творению, на вопрос: «Чем же так хорош Верховен?», можно смело отсылать вопрошающих к просмотру этого фильма.
Время раздачи: C 8:00 до 23:00 мск. До первых пяти скачавших.

[Цитировать]



Показать сообщения:    

Текущее время: 05-Дек 07:32

Часовой пояс: UTC + 3


Вы не можете начинать темы
Вы не можете отвечать на сообщения
Вы не можете редактировать свои сообщения
Вы не можете удалять свои сообщения
Вы не можете голосовать в опросах
Вы не можете прикреплять файлы к сообщениям
Вы не можете скачивать файлы

!ВНИМАНИЕ!
Сайт не предоставляет электронные версии произведений, а занимается лишь коллекционированием и каталогизацией ссылок, присылаемых и публикуемых на форуме нашими читателями. Если вы являетесь правообладателем какого-либо представленного материала и не желаете, чтобы ссылка на него находилась в нашем каталоге, свяжитесь с нами, и мы незамедлительно удалим ее. Файлы для обмена на трекере предоставлены пользователями сайта, и администрация не несет ответственности за их содержание. Просьба не заливать файлы, защищенные авторскими правами, а также файлы нелегального содержания!