[ Сегодня идет свободное скачивание без начисления Download ]


Статистика раздачи
Нет
 
   
 
Top  
 
 
-Комиссар полиции и Малыш / Duelul (1983) DVDRip [H.264] - Русское название: Комиссар полиции и Малыш
Оригинальное название: Duelul
Год выпуска: 1983
Жанр: Боевик, Детектив
Страна: Румыния
Описание фильма:
Бухарест, 1939 год. Банда Григория Маймуки совершает дерзкое ограбление банка. К расследованию приступает комиссар Миклован и его маленький помощник беспризорник Малыш.
Задуманный как приквел всего сериала, фильм был снят самым последним.
Режиссер: Серджиу Николаеску
Сценарий: Мирча Бурада, Винтилэ Корбул, Серджиу Николаеску
Актеры: Серджиу Николаеску, Жан Константин, Коля Рэуту, Овидий Юлий Молдован, Джордж Михаица, Тома Дорел, Ана Мария Хория, Мэриэн Стоика, Ион Мунтяну, Маня Александру, Ион Бесою, Николь Болан, Юлия Борос, Джордже Константин, Думитру Димитриу
Продолжительность: 01:43:50
Перевод: Дублированный (Советский дубляж)
Субтитры: Отсутствуют

Дата мировой премьеры: 28 апреля 1983
Видеокодек: MPEG-4 AVC/H.264
Битрейт видео: ~2200 Кбит/сек
Размер кадра: 720x512
Качество видео: DVDRip
Аудиокодек: AC3 2.0
Битрейт аудио: 192 kbps

Дополнительная информация:

*имеются непереведённые места, вырезанные советской цензурой, сцены небольшие и интуитивно понятные

MediaInfo:

Общее
Уникальный идентификатор : 234156206225625638721302392701572420885 (0xB028D84CE6761694ABE14A9014491515)
Полное имя : D:\Downloads\Комиссар полиции и Малыш.mkv
Формат : Matroska
Версия формата : Version 2
Размер файла : 1,74 Гбайт
Продолжительность : 1 ч. 43 м.
Общий поток : 2393 Кбит/сек
Дата кодирования : UTC 2013-03-03 20:36:11
Программа кодирования : mkvmerge v5.7.0 ('The Whirlwind') built on Jul 29 2012 15:12:35
Библиотека кодирования : libebml v1.2.3 + libmatroska v1.3.0
Видео
Идентификатор : 1
Формат : AVC
Формат/Информация : Advanced Video Codec
Профиль формата : High@L4.1
Параметр CABAC формата : Да
Параметр ReFrames формата : 8 кадров
Режим смешивания : Header stripping
Идентификатор кодека : V_MPEG4/ISO/AVC
Продолжительность : 1 ч. 43 м.
Битрейт : 2200 Кбит/сек
Ширина : 720 пикселей
Высота : 512 пикселей
Соотношение сторон : 1,406
Режим частоты кадров : Постоянный
Частота кадров : 25,000 кадров/сек
Цветовое пространство : YUV
Субдискретизация насыщенности : 4:2:0
Битовая глубина : 8 бит
Тип развёртки : Прогрессивная
Бит/(Пиксели*Кадры) : 0.239
Размер потока : 1,56 Гбайт (90%)
Заголовок : Duelul
Библиотека кодирования : x264 core 129 r2230 1cffe9f
Настройки программы : cabac=1 / ref=8 / deblock=1:-1:-1 / analyse=0x3:0x133 / me=umh / subme=9 / psy=1 / psy_rd=1.00:0.15 / mixed_ref=1 / me_range=16 / chroma_me=1 / trellis=2 / 8x8dct=1 / cqm=0 / deadzone=21,11 / fast_pskip=1 / chroma_qp_offset=-3 / threads=3 / lookahead_threads=1 / sliced_threads=0 / nr=0 / decimate=1 / interlaced=0 / bluray_compat=0 / constrained_intra=0 / bframes=3 / b_pyramid=2 / b_adapt=2 / b_bias=0 / direct=3 / weightb=1 / open_gop=0 / weightp=2 / keyint=250 / keyint_min=25 / scenecut=40 / intra_refresh=0 / rc_lookahead=60 / rc=2pass / mbtree=1 / bitrate=2200 / ratetol=1.0 / qcomp=0.60 / qpmin=10 / qpmax=51 / qpstep=4 / cplxblur=20.0 / qblur=0.5 / ip_ratio=1.40 / aq=1:1.00
Язык : Romanian
Default : Да
Forced : Нет
Аудио
Идентификатор : 2
Формат : AC-3
Формат/Информация : Audio Coding 3
Расширение режима : CM (complete main)
Параметр Endianness формата : Big
Режим смешивания : Header stripping
Идентификатор кодека : A_AC3
Продолжительность : 1 ч. 43 м.
Вид битрейта : Постоянный
Битрейт : 192 Кбит/сек
Каналы : 1 канал
Расположение каналов : Front: C
Частота : 48,0 КГц
Битовая глубина : 16 бит
Метод сжатия : С потерями
Размер потока : 143 Мбайт (8%)
Заголовок : Дублированный
Язык : Russian
Default : Да
Forced : Нет
Скриншоты: Время раздачи: с 12:00 до 24:00 по Москве (выходные круглосуточно), до 10 скачавших

[Цитировать]



Показать сообщения:    

Текущее время: 08-Дек 03:15

Часовой пояс: UTC + 3


Вы не можете начинать темы
Вы не можете отвечать на сообщения
Вы не можете редактировать свои сообщения
Вы не можете удалять свои сообщения
Вы не можете голосовать в опросах
Вы не можете прикреплять файлы к сообщениям
Вы не можете скачивать файлы

!ВНИМАНИЕ!
Сайт не предоставляет электронные версии произведений, а занимается лишь коллекционированием и каталогизацией ссылок, присылаемых и публикуемых на форуме нашими читателями. Если вы являетесь правообладателем какого-либо представленного материала и не желаете, чтобы ссылка на него находилась в нашем каталоге, свяжитесь с нами, и мы незамедлительно удалим ее. Файлы для обмена на трекере предоставлены пользователями сайта, и администрация не несет ответственности за их содержание. Просьба не заливать файлы, защищенные авторскими правами, а также файлы нелегального содержания!