[ Сегодня идет свободное скачивание без начисления Download ]


Статистика раздачи
Нет
 
   
 
Top  
 
 
-Иногда они возвращаются / Sometimes They Come Back (1991) HDTVRip- Русское название: Иногда они возвращаются
Оригинальное название: Sometimes They Come Back
Год выпуска: 1991
Жанр: Триллер, Ужасы, Фэнтези
Описание фильма:
Школьный учитель приезжает в свой родной город после 30-летнего отсутствия. Когда-то здесь произошла страшная трагедия: шайка головорезов из числа его учеников убила его брата. А затем и сами убийцы погибли во время крушения поезда. Это случилось давно. Но страшные призраки прошлого один за другим начинают вновь возвращаться…, появляются и трое убийц брата…
Режиссер: Том Маклафлин
Актеры: Тим Мэтисон, Брук Эдамс, Роберт Раслер, Крис Деметрал, Роберт Хай Гормен, Уильям Сэндерсон, Николас Сэдлер, Бентли Митчэм, Мэтт Нолан, Тасиа Валенза
Продолжительность: 01:34:03
Перевод: Двуголосый закадровый

Дата мировой премьеры: 7 мая 1991
Дата российской премьеры: 11 ноября 2010
Видеокодек: Xvid
Битрейт видео: ~2024 kbps
Размер кадра: 720x400
Качество видео: HDTVRip
Аудиокодек: MP3 2.0
Битрейт аудио: 192.00 kbps

MediaInfo

Формат : AVI
Формат/Информация : Audio Video Interleave
Размер файла : 1,46 Гбайт
Продолжительность : 1 ч. 34 м.
Общий поток : 2227 Кбит/сек
Название фильма : Иногда они возвращаются
Режиссёр : Rip by Ledy_X
Программа кодирования : VirtualDubMod 1.5.10.2 (build 2540/release)
Правообладатель : Edich2
Видео
Идентификатор : 0
Формат : MPEG-4 Visual
Профиль формата : Advanced Simple@L5
Параметр BVOP формата : 1
Параметр QPel формата : Нет
Параметр GMC формата : Без точки перехода
Параметр матрицы формата : Выборочная
Идентификатор кодека : DX50
Идентификатор кодека/Подсказка : DivX 5
Продолжительность : 1 ч. 34 м.
Битрейт : 2025 Кбит/сек
Ширина : 720 пикселей
Высота : 400 пикселей
Соотношение сторон : 16:9
Частота кадров : 25,000 кадров/сек
Цветовое пространство : YUV
Субдискретизация насыщенности : 4:2:0
Битовая глубина : 8 бит
Тип развёртки : Прогрессивная
Метод сжатия : С потерями
Бит/(Пиксели*Кадры) : 0.281
Размер потока : 1,33 Гбайт (91%)
Библиотека кодирования : XviD 1.2.1 (UTC 2008-12-04)
Аудио
Идентификатор : 1
Формат : MPEG Audio
Версия формата : Version 1
Профиль формата : Layer 3
Идентификатор кодека : 55
Идентификатор кодека/Подсказка : MP3
Продолжительность : 1 ч. 34 м.
Вид битрейта : Постоянный
Битрейт : 192 Кбит/сек
Каналы : 2 канала
Частота : 48,0 КГц
Метод сжатия : С потерями
Размер потока : 129 Мбайт (9%)
Выравнивание : Соединение по промежуткам
Продолжительность промежутка : 40 мс. (1,00 видеокадр)
Время предзагрузки промежутка : 504 мс.
Библиотека кодирования : LAMEЄЄ%
Скриншоты:

Время раздачи: с 12:00 до 18:00

[Цитировать]



Показать сообщения:    

Текущее время: 11-Дек 05:21

Часовой пояс: UTC + 3


Вы не можете начинать темы
Вы не можете отвечать на сообщения
Вы не можете редактировать свои сообщения
Вы не можете удалять свои сообщения
Вы не можете голосовать в опросах
Вы не можете прикреплять файлы к сообщениям
Вы не можете скачивать файлы

!ВНИМАНИЕ!
Сайт не предоставляет электронные версии произведений, а занимается лишь коллекционированием и каталогизацией ссылок, присылаемых и публикуемых на форуме нашими читателями. Если вы являетесь правообладателем какого-либо представленного материала и не желаете, чтобы ссылка на него находилась в нашем каталоге, свяжитесь с нами, и мы незамедлительно удалим ее. Файлы для обмена на трекере предоставлены пользователями сайта, и администрация не несет ответственности за их содержание. Просьба не заливать файлы, защищенные авторскими правами, а также файлы нелегального содержания!