[ Сегодня идет свободное скачивание без начисления Download ]


Статистика раздачи
Нет
 
   
 
Top  
 
 
-Жестокие игры 3 / Cruel Intentions 3 (2004) DVDrip [H.264]
«Третий раз - это шарм...»
- Русское название: Жестокие игры 3
Оригинальное название: Cruel Intentions 3
Год выпуска: 2004
Производство: США, Newmarket Capital Group LLC, Newmarket Productions, Original Film
Жанр: Триллер, драма
Перевод: Профессиональный (многоголосый, закадровый)
Субтитры: Английские
Вид субтитров: Вшитые (отключаемые)
Режиссер: Скотт Зил
Актеры: Керр Смит, Кристина Анапау, Натан Уэварингтон, Мелисса Ивонн Льюис, Натали Рэмси, Томас Скотт Паркер, Майкл Пембертон, Тара Кэрролл, Чарли Вебер, Алекс Доннелли, Уильям Грегори Ли, Аарон МакФерсон, Элизабет МакДональд
Описание фильма:
Их любовным интригам нет конца… Их коварный план соблазнить и бросить двух доверчивых студенток не увенчался особым успехом, и тогда Джейсон и Патрик — два самых распущенных студента Колледжа Престридж — обратили свой взгляд на «приз», более интригующий и заманчивый — Касси Мертей, женщину холодную и расчетливую, которая приоткрывает им новый мир наслаждения и боли.- -Продолжительность: 01:21:39
Качество видео: DVDrip (AVC)
Видеокодек: MPEG4 AVC
Битрейт видео: 1776 Кбит/сек
Размер кадра: 720x576@1024x576
Аудио 1: Русский, AC3, 6 ch, 384 Кбит/сек
Аудио 2: Английский, AC3, 6 ch, 384 Кбит/сек

MediaInfo

Общее
Уникальный идентификатор                 : 204160811008126703048001665816242724991 (0x9997F122EBA1296C8AD29A100B88A07F)
Полное имя                               : E:\Раздачи\Видео\Жестокие Игры 3 (2004) DVDrip-AVC.mkv
Формат                                   : Matroska
Версия формата                           : Version 1
Размер файла                             : 1,45 Гбайт
Продолжительность                        : 1 ч. 21 м.
Общий поток                              : 2548 Кбит/сек
Дата кодирования                         : UTC 2009-09-10 16:49:59
Программа кодирования                    : mkvmerge v2.1.0 ('Another Place To Fall') built on Aug 19 2007 13:40:07
Библиотека кодирования                   : libebml v0.7.7 + libmatroska v0.8.1
Видео
Идентификатор                            : 1
Формат                                   : AVC
Формат/Информация                        : Advanced Video Codec
Профиль формата                          : [url=mailto:Main@L5.1]Main@L5.1[/url]
Параметр CABAC формата                   : Да
Параметр ReFrames формата                : 4 кадра
Идентификатор кодека                     : V_MPEG4/ISO/AVC
Продолжительность                        : 1 ч. 21 м.
Битрейт                                  : 1776 Кбит/сек
Ширина                                   : 720 пикселей
Высота                                   : 576 пикселей
Соотношение сторон                       : 16:9
Соотношение сторон в оригинале           : 5:4
Частота кадров                           : 25,000 кадров/сек
Стандарт вещания                         : PAL
Цветовое пространство                    : YUV
Субдискретизация насыщенности            : 4:2:0
Битовая глубина                          : 8 бит
Тип развёртки                            : Прогрессивная
Бит/(Пиксели*Кадры)                      : 0.171
Размер потока                            : 1010 Мбайт (68%)
Заголовок                                : Cruel Intensions 3
Библиотека кодирования                   : x264 core 56 svn-667M
Настройки программы                      : cabac=1 / ref=3 / deblock=1:0:0 / analyse=0x1:0x131 / me=umh / subme=7 / brdo=1 / mixed_ref=1 / me_range=16 / chroma_me=1 / trellis=1 / 8x8dct=0 / cqm=0 / deadzone=21,11 / chroma_qp_offset=0 / threads=2 / nr=0 / decimate=1 / mbaff=0 / bframes=3 / b_pyramid=0 / b_adapt=1 / b_bias=0 / direct=3 / wpredb=1 / bime=1 / keyint=250 / keyint_min=25 / scenecut=40(pre) / rc=2pass / bitrate=1776 / ratetol=1.0 / rceq='blurCplx^(1-qComp)' / qcomp=0.60 / qpmin=10 / qpmax=51 / qpstep=4 / cplxblur=20.0 / qblur=0.5 / ip_ratio=1.40 / pb_ratio=1.30
Default                                  : Да
Forced                                   : Нет
Аудио #1
Идентификатор                            : 2
Формат                                   : AC-3
Формат/Информация                        : Audio Coding 3
Расширение режима                        : CM (complete main)
Параметр Endianness формата              : Big
Идентификатор кодека                     : A_AC3
Продолжительность                        : 1 ч. 21 м.
Вид битрейта                             : Постоянный
Битрейт                                  : 384 Кбит/сек
Каналы                                   : 6 каналов
Расположение каналов                     : Front: L C R, Side: L R, LFE
Частота                                  : 48,0 КГц
Битовая глубина                          : 16 бит
Метод сжатия                             : С потерями
Размер потока                            : 224 Мбайт (15%)
Заголовок                                : AC3 5.1 / 384 kbps
Язык                                     : Russian
Default                                  : Да
Forced                                   : Нет
Аудио #2
Идентификатор                            : 3
Формат                                   : AC-3
Формат/Информация                        : Audio Coding 3
Расширение режима                        : CM (complete main)
Параметр Endianness формата              : Big
Идентификатор кодека                     : A_AC3
Продолжительность                        : 1 ч. 21 м.
Вид битрейта                             : Постоянный
Битрейт                                  : 384 Кбит/сек
Каналы                                   : 6 каналов
Расположение каналов                     : Front: L C R, Side: L R, LFE
Частота                                  : 48,0 КГц
Битовая глубина                          : 16 бит
Метод сжатия                             : С потерями
Размер потока                            : 224 Мбайт (15%)
Заголовок                                : AC3 5.1 / 384 kbps
Язык                                     : English
Default                                  : Нет
Forced                                   : Нет
Текст
Идентификатор                            : 4
Формат                                   : UTF-8
Идентификатор кодека                     : S_TEXT/UTF8
Идентификатор кодека/Информация          : UTF-8 Plain Text
Язык                                     : English
Default                                  : Да
Forced                                   : Нет
Скриншоты:

-Время раздачи: 9.00 - 23.00 (по мере возможности...)

[Цитировать]



Показать сообщения:    

Текущее время: 07-Дек 15:32

Часовой пояс: UTC + 3


Вы не можете начинать темы
Вы не можете отвечать на сообщения
Вы не можете редактировать свои сообщения
Вы не можете удалять свои сообщения
Вы не можете голосовать в опросах
Вы не можете прикреплять файлы к сообщениям
Вы не можете скачивать файлы

!ВНИМАНИЕ!
Сайт не предоставляет электронные версии произведений, а занимается лишь коллекционированием и каталогизацией ссылок, присылаемых и публикуемых на форуме нашими читателями. Если вы являетесь правообладателем какого-либо представленного материала и не желаете, чтобы ссылка на него находилась в нашем каталоге, свяжитесь с нами, и мы незамедлительно удалим ее. Файлы для обмена на трекере предоставлены пользователями сайта, и администрация не несет ответственности за их содержание. Просьба не заливать файлы, защищенные авторскими правами, а также файлы нелегального содержания!