[ Сегодня идет свободное скачивание без начисления Download ]


Статистика раздачи
Нет
 
   
 
Top  
 
 
-Сейчас или никогда / Curfew (2012) WEB-DLRip [H.264/720p-LQ]- Русское название: Сейчас или никогда
Оригинальное название: Curfew
Год выпуска: 2012
Производство:США, Fuzzy Logic Pictures
Жанр: Короткометражный, драма
Перевод: Одноголосый закадровый, любительский
Субтитры: Встроенные отключаемые
Язык субтитров: Французский
Режиссер: Шон Кристенсен
Актеры: Фатима Птацек, Шон Кристенсен, Ким Аллен, Дэна Сигал, Керстен Холли Смит, Марк Реджистер
Описание фильма:
Когда Ричи решает, наконец, свести счеты с жизнью, в ней появляется новый смысл: девятилетняя племянница София, которую Ричи не видел несколько лет. Сможет ли один вечер с девочкой изменить его жизнь?

Награды: Оскар, 2013 год. Победитель в номинации "Лучший короткометражный игровой фильм"
Продолжительность: 00:19:42
Качество видео: WEB-DLRip
Видеокодек: AVC/H.264
Битрейт видео: ~3967 kbps
Размер кадра: 1280x536
Аудиокодек и битрейт:
Английский - AC3 (6 ch), 384 kbps
Русский - MP3 (2 ch), 256 kbps

MediaInfo

Общее
Уникальный идентификатор : 188408491689551274973503306443117873630 (0x8DBE27D4E3830C379428F0814888C9DE)
Полное имя : Curfew_2012.mkv
Формат : Matroska
Версия формата : Version 2
Размер файла : 662 Мбайт
Продолжительность : 19 м.
Общий поток : 4701 Кбит/сек
Дата кодирования : UTC 2013-03-14 20:57:18
Программа кодирования : mkvmerge v5.2.0 ('I can't explain') built on Dec 18 2011 18:12:03
Библиотека кодирования : libebml v1.2.3 + libmatroska v1.3.0
Видео
Идентификатор : 1
Формат : AVC
Формат/Информация : Advanced Video Codec
Профиль формата : Main@L3.1
Параметр CABAC формата : Нет
Параметр ReFrames формата : 2 кадра
Идентификатор кодека : V_MPEG4/ISO/AVC
Продолжительность : 19 м.
Битрейт : 3967 Кбит/сек
Ширина : 1280 пикселей
Высота : 536 пикселей
Соотношение сторон : 2,40:1
Режим частоты кадров : Постоянный
Частота кадров : 23,976 кадра/сек
Цветовое пространство : YUV
Субдискретизация насыщенности : 4:2:0
Битовая глубина : 8 бит
Тип развёртки : Прогрессивная
Бит/(Пиксели*Кадры) : 0.241
Размер потока : 559 Мбайт (84%)
Заголовок : ripped by HD4FUN.COM
Язык : English
Default : Да
Forced : Нет
Основные цвета : BT.709
Характеристики трансфера : BT.709
Коэффициенты матрицы : BT.709
Аудио #1
Идентификатор : 2
Формат : MPEG Audio
Версия формата : Version 1
Профиль формата : Layer 3
Идентификатор кодека : A_MPEG/L3
Идентификатор кодека/Подсказка : MP3
Продолжительность : 19 м.
Вид битрейта : Постоянный
Битрейт : 256 Кбит/сек
Каналы : 2 канала
Частота : 44,1 КГц
Метод сжатия : С потерями
Размер потока : 36,1 Мбайт (5%)
Язык : Russian
Default : Да
Forced : Нет
Аудио #2
Идентификатор : 3
Формат : AC-3
Формат/Информация : Audio Coding 3
Расширение режима : CM (complete main)
Параметр Endianness формата : Big
Идентификатор кодека : A_AC3
Продолжительность : 19 м.
Вид битрейта : Постоянный
Битрейт : 384 Кбит/сек
Каналы : 6 каналов
Расположение каналов : Front: L C R, Side: L R, LFE
Частота : 48,0 КГц
Битовая глубина : 16 бит
Метод сжатия : С потерями
Размер потока : 54,1 Мбайт (8%)
Язык : English
Default : Нет
Forced : Нет
Текст
Идентификатор : 4
Формат : UTF-8
Идентификатор кодека : S_TEXT/UTF8
Идентификатор кодека/Информация : UTF-8 Plain Text
Язык : French
Default : Нет
Forced : Нет
Меню
00:00:00.000 : en:Opening Sequence
00:03:15.000 : en:Good Friends
00:09:38.000 : en:The Accident
00:12:32.000 : en:One Time Deal
00:18:54.000 : en:End Credits
Скриншоты: Время раздачи: C 8:00 до 23:00 мск. До первых пяти скачавших.

[Цитировать]



Показать сообщения:    

Текущее время: 27-Июн 23:35

Часовой пояс: UTC + 6


Вы не можете начинать темы
Вы не можете отвечать на сообщения
Вы не можете редактировать свои сообщения
Вы не можете удалять свои сообщения
Вы не можете голосовать в опросах
Вы не можете прикреплять файлы к сообщениям
Вы не можете скачивать файлы

!ВНИМАНИЕ!
Сайт не предоставляет электронные версии произведений, а занимается лишь коллекционированием и каталогизацией ссылок, присылаемых и публикуемых на форуме нашими читателями. Если вы являетесь правообладателем какого-либо представленного материала и не желаете, чтобы ссылка на него находилась в нашем каталоге, свяжитесь с нами, и мы незамедлительно удалим ее. Файлы для обмена на трекере предоставлены пользователями сайта, и администрация не несет ответственности за их содержание. Просьба не заливать файлы, защищенные авторскими правами, а также файлы нелегального содержания!