[ Сегодня идет свободное скачивание без начисления Download ]


Статистика раздачи
Нет
 
   
 
Top  
 
 
-Эксперимент «Повиновение» / Compliance (2012) HDRip- Русское название: Эксперимент «Повиновение»
Оригинальное название: Compliance
Год выпуска: 2012
Выпущено: США / Bad Cop Bad Cop Film Productions, Dogfish Pictures, Muskat Filmed Properties
Жанр: Триллер, Драма, Криминал
Описание фильма:
В фастфудный ресторанчик звонит некто, представившийся офицером полиции, и сообщает, что молодая кассирша обвиняется в краже. Тетка-менеджер запирает подозреваемую в подсобке, обыскивает ее, принуждает раздеться — и все это по указанию голоса, чей авторитет ни разу не подвергается сомнению.
Режиссер: Крэйг Зобель
Актеры: Энн Дауд, Дрима Уокер, Пэт Хили, Билл Кэмп, Филип Эттинджер, Джеймс МакКэффри, Мэтт Сервитто, Эшли Эткинсон, Никия Мэтис, Ральф Йован Родригез
Продолжительность: 01:29:45
Перевод: Многоголосый закадровый [лицензия]
Рейтинг R - Детям до 17 лет обязательно присутствие родителей

Дата мировой премьеры:21 января 2012
Дата российской премьеры: 13 декабря 2012, «Другое кино»
Дата выхода DVD релиза:18 марта 2013, «Новый Диск», «Кармен Видео»
Видеокодек: Xvid
Битрейт видео: ~955 Kbps
Размер кадра: 672x288
Качество видео: HDRip
Аудиокодек:MP3, 2 канала
Битрейт аудио: 128 Kbps
Сэмпл: Ссылка

MI

Общее
Полное имя : C:\Users\Андрей\Desktop\Раздачи\Jeksperiment.Povinovenie.2012.P.HDRip.700MB.avi
Формат : AVI
Формат/Информация : Audio Video Interleave
Размер файла : 701 Мбайт
Продолжительность : 1 ч. 29 м.
Общий поток : 1092 Кбит/сек
Программа кодирования : VirtualDubMod 1.5.10.2 (build 2540/release)
Библиотека кодирования : VirtualDubMod build 2540/release
Видео
Идентификатор : 0
Формат : MPEG-4 Visual
Профиль формата : Advanced Simple@L5
Параметр BVOP формата : 4
Параметр QPel формата : Нет
Параметр GMC формата : Без точки перехода
Параметр матрицы формата : Выборочная
Идентификатор кодека : XVID
Идентификатор кодека/Подсказка : XviD
Продолжительность : 1 ч. 29 м.
Битрейт : 955 Кбит/сек
Ширина : 672 пикселя
Высота : 288 пикселей
Соотношение сторон : 2,35:1
Частота кадров : 23,976 кадра/сек
Цветовое пространство : YUV
Субдискретизация насыщенности : 4:2:0
Битовая глубина : 8 бит
Тип развёртки : Прогрессивная
Метод сжатия : С потерями
Бит/(Пиксели*Кадры) : 0.206
Размер потока : 613 Мбайт (87%)
Библиотека кодирования : XviD 1.2.1 (UTC 2008-12-04)
Аудио
Идентификатор : 1
Формат : MPEG Audio
Версия формата : Version 1
Профиль формата : Layer 3
Идентификатор кодека : 55
Идентификатор кодека/Подсказка : MP3
Продолжительность : 1 ч. 29 м.
Вид битрейта : Постоянный
Битрейт : 128 Кбит/сек
Каналы : 2 канала
Частота : 48,0 КГц
Метод сжатия : С потерями
Размер потока : 82,2 Мбайт (12%)
Выравнивание : Соединение по промежуткам
Продолжительность промежутка : 42 мс. (1,00 видеокадр)
Время предзагрузки промежутка : 504 мс.
Библиотека кодирования : L3.99r
Настройки программы : -m s -V 4 -q 2 -lowpass 17 -b 128
Скриншоты:

[Цитировать]



Показать сообщения:    

Текущее время: 11-Дек 07:14

Часовой пояс: UTC + 3


Вы не можете начинать темы
Вы не можете отвечать на сообщения
Вы не можете редактировать свои сообщения
Вы не можете удалять свои сообщения
Вы не можете голосовать в опросах
Вы не можете прикреплять файлы к сообщениям
Вы не можете скачивать файлы

!ВНИМАНИЕ!
Сайт не предоставляет электронные версии произведений, а занимается лишь коллекционированием и каталогизацией ссылок, присылаемых и публикуемых на форуме нашими читателями. Если вы являетесь правообладателем какого-либо представленного материала и не желаете, чтобы ссылка на него находилась в нашем каталоге, свяжитесь с нами, и мы незамедлительно удалим ее. Файлы для обмена на трекере предоставлены пользователями сайта, и администрация не несет ответственности за их содержание. Просьба не заливать файлы, защищенные авторскими правами, а также файлы нелегального содержания!