[ Сегодня идет свободное скачивание без начисления Download ]


Статистика раздачи
Нет
 
   
 
Top  
 
 
-Жестокие игры 2: Манчестерская подготовка / Cruel Intentions 2 (2000) DVDRip [H.264]
«Seduce and Destroy.»
- Русское название: Жестокие игры 2: Манчестерская подготовка
Оригинальное название: Cruel Intentions 2
Год выпуска: 2000
Производство: США, Columbia TriStar Television, Newmarket Capital Group LLC, Original Film
Жанр: Драма, комедия
Перевод: Профессиональный (многоголосый, закадровый)
Субтитры: Отсутствуют
Режиссер: Роджер Камбл
Актеры: Эми Адамс, Робин Данн, Сара Томпсон, Кери Линн Прэтт, Бэрри Флэтмэн, Мими Роджерс, Тереза Хилл, Барклай Хоуп, Тэйн МакКлюр, Дэвид Макилрайт, Джонатан Поттс, Шон Патрик Томас
Описание фильма:
Себастьен Вальмон, сделавший все для того, чтобы его выгнали из школы, переезжает в Нью-Йорк к своему отцу, женившемуся в четвертый раз. Он хочет начать новую жизнь приличного человека. У новой мачехи есть дочь Кэтрин, прилагающая все усилия для того, чтобы стать похожей на стерву-мать. Кэтрин сразу невзлюбила сводного братика, превосходящего ее во всем.
Себастьен влюбляется в Даниель, дочь директора его новой школы. Она отличается от других девушек серьезностью и целеустремленностью, учится и подрабатывает в книжном магазине. Кэтрин намерена превратить Шери, девственницу-идиотку из безумно богатой семьи, в последнюю шлюху. Школа, в которой учатся Себастьен и Кэтрин — для детей богатых родителей. И Кэтрин возглавляет это сборище снобов. Но ей не очень-то и нравится выбранная стезя — стать такой же как мать. Чем разрешится конфликт Себастьена с Кэтрин? И что будет дальше между ним и Даниель?- -Продолжительность: 01:23:28
Качество видео: DVDRip (AVC)
Видеокодек: MPEG4 AVC
Битрейт видео: 1728 Кбит/сек
Размер кадра: [email protected]
Аудио 1: Русский, AC3, 6 ch, 384 Кбит/сек
Аудио 2: Английский, AC3, 6 ch, 384 Кбит/сек

MediaInfo

Общее
Уникальный идентификатор                 : 178608403260628196932644706496930228513 (0x865EBA2AD1F49E0EA464F41DD479A921)
Полное имя                               : E:\Раздачи\Видео\Жестокие игры 2 Манчестерская подготовка (2000) DVDRip-AVC.mkv
Формат                                   : Matroska
Версия формата                           : Version 1
Размер файла                             : 1,46 Гбайт
Продолжительность                        : 1 ч. 23 м.
Общий поток                              : 2500 Кбит/сек
Дата кодирования                         : UTC 2009-09-08 18:02:01
Программа кодирования                    : mkvmerge v2.1.0 ('Another Place To Fall') built on Aug 19 2007 13:40:07
Библиотека кодирования                   : libebml v0.7.7 + libmatroska v0.8.1
Видео
Идентификатор                            : 1
Формат                                   : AVC
Формат/Информация                        : Advanced Video Codec
Профиль формата                          : [url=mailto:[email protected]][email protected][/url]
Параметр CABAC формата                   : Да
Параметр ReFrames формата                : 4 кадра
Идентификатор кодека                     : V_MPEG4/ISO/AVC
Продолжительность                        : 1 ч. 23 м.
Битрейт                                  : 1728 Кбит/сек
Ширина                                   : 720 пикселей
Высота                                   : 576 пикселей
Соотношение сторон                       : 16:9
Соотношение сторон в оригинале           : 5:4
Частота кадров                           : 25,000 кадров/сек
Стандарт вещания                         : PAL
Цветовое пространство                    : YUV
Субдискретизация насыщенности            : 4:2:0
Битовая глубина                          : 8 бит
Тип развёртки                            : Прогрессивная
Бит/(Пиксели*Кадры)                      : 0.167
Размер потока                            : 1004 Мбайт (67%)
Заголовок                                : Cruel Intensions 2
Библиотека кодирования                   : x264 core 56 svn-667M
Настройки программы                      : cabac=1 / ref=3 / deblock=1:0:0 / analyse=0x1:0x131 / me=umh / subme=7 / brdo=1 / mixed_ref=1 / me_range=16 / chroma_me=1 / trellis=1 / 8x8dct=0 / cqm=0 / deadzone=21,11 / chroma_qp_offset=0 / threads=2 / nr=0 / decimate=1 / mbaff=0 / bframes=3 / b_pyramid=0 / b_adapt=1 / b_bias=0 / direct=3 / wpredb=1 / bime=1 / keyint=250 / keyint_min=25 / scenecut=40(pre) / rc=2pass / bitrate=1728 / ratetol=1.0 / rceq='blurCplx^(1-qComp)' / qcomp=0.60 / qpmin=10 / qpmax=51 / qpstep=4 / cplxblur=20.0 / qblur=0.5 / ip_ratio=1.40 / pb_ratio=1.30
Default                                  : Да
Forced                                   : Нет
Аудио #1
Идентификатор                            : 2
Формат                                   : AC-3
Формат/Информация                        : Audio Coding 3
Расширение режима                        : CM (complete main)
Параметр Endianness формата              : Big
Идентификатор кодека                     : A_AC3
Продолжительность                        : 1 ч. 23 м.
Вид битрейта                             : Постоянный
Битрейт                                  : 384 Кбит/сек
Каналы                                   : 6 каналов
Расположение каналов                     : Front: L C R, Side: L R, LFE
Частота                                  : 48,0 КГц
Битовая глубина                          : 16 бит
Метод сжатия                             : С потерями
Размер потока                            : 229 Мбайт (15%)
Заголовок                                : AC3 5.1 / 384 kbps
Язык                                     : Russian
Default                                  : Да
Forced                                   : Нет
Аудио #2
Идентификатор                            : 3
Формат                                   : AC-3
Формат/Информация                        : Audio Coding 3
Расширение режима                        : CM (complete main)
Параметр Endianness формата              : Big
Идентификатор кодека                     : A_AC3
Продолжительность                        : 1 ч. 23 м.
Вид битрейта                             : Постоянный
Битрейт                                  : 384 Кбит/сек
Каналы                                   : 6 каналов
Расположение каналов                     : Front: L C R, Side: L R, LFE
Частота                                  : 48,0 КГц
Битовая глубина                          : 16 бит
Метод сжатия                             : С потерями
Размер потока                            : 229 Мбайт (15%)
Заголовок                                : AC3 5.1 / 384 kbps
Язык                                     : English
Default                                  : Нет
Forced                                   : Нет
Скриншоты:

-Время раздачи: 9.00 - 23.00 (по мере возможности...)

[Цитировать]



Показать сообщения:    

Текущее время: 05-Дек 03:32

Часовой пояс: UTC + 3


Вы не можете начинать темы
Вы не можете отвечать на сообщения
Вы не можете редактировать свои сообщения
Вы не можете удалять свои сообщения
Вы не можете голосовать в опросах
Вы не можете прикреплять файлы к сообщениям
Вы не можете скачивать файлы

!ВНИМАНИЕ!
Сайт не предоставляет электронные версии произведений, а занимается лишь коллекционированием и каталогизацией ссылок, присылаемых и публикуемых на форуме нашими читателями. Если вы являетесь правообладателем какого-либо представленного материала и не желаете, чтобы ссылка на него находилась в нашем каталоге, свяжитесь с нами, и мы незамедлительно удалим ее. Файлы для обмена на трекере предоставлены пользователями сайта, и администрация не несет ответственности за их содержание. Просьба не заливать файлы, защищенные авторскими правами, а также файлы нелегального содержания!