[ Сегодня идет свободное скачивание без начисления Download ]


Статистика раздачи
Нет
 
   
 
Top  
 
 
-VA - MTV Top the Hits 2013 3CD (2013)- Год: 2013
Жанр: Pop, Dance, Rock, R&B, Trance, Other
Продолжительность: 03:14:36
Кодек: FLAC
Битрейт: Lossless
Описание: Обычно на трекере размешаются в основном МР3ки. Сборник хитов в приличном качестве довольно большая редкость. Тем более, что все, представленные в этом сборнике треки действительно хиты!
Трек лист:
CD1
Продолжительность:01:05:37
1. Will.I.Am Ft. Britney Spears - Scream & Shout (4:13)
2. David Guetta Ft. Taped Rai - Just One Last Time (3:50)
3. Calvin Harris Ft. Tinie Tempah - Drinking From The Bottle (4:00)
4. Ricki-Lee - Burn It Down (3:56)
5. Anise K Ft. Snoop Dogg - Walking On Air (4:06)
6. Otto Knows - Million Voices (3:10)
7. Chris Brown - Don't Judge Me (3:30)
8. Flume - Holdin' On (2:33)
9. Little Mix - Dna (3:58)
10. The Wanted - I Found You (3:34)

Продолжение Треклист CD1:

11. Justice Crew - Best Night (3:36) 12. Bruno Mars - Young Girls (3:50)
13. Train - This'll Be My Year (3:29)
14. Pez - The Game (4:06)
15. Chiddy Bang - Happening (3:16)
16. 50 Cent Ft. Eminem & Adam Levine - My Life (3:58)
17. Ciara - Got Me Good (3:51)
18. The Lumineers - Ho Hey (2:41)

Отчёт ЕАС:

Exact Audio Copy V0.99 prebeta 5 from 4. May 2009
Отчёт EAC об извлечении, выполненном 18. марта 2013, 12:12
Va / MTV Top the Hits 2013 CD1
Дисковод: PIONER  BDR206   Adapter: 2  ID: 0
Режим чтения                 : Достоверность
Использование точного потока : Да
Отключение кэша аудио        : Да
Использование указателей C2  : Нет
Коррекция смещения при чтении                     : 0
Способность читать области Lead-in и Lead-out     : Нет
Заполнение пропущенных сэмплов тишиной            : Да
Удаление блоков с тишиной в начале и конце        : Нет
При вычислениях CRC использовались нулевые сэмплы : Нет
Интерфейс                                         : Встроенный Win32-интерфейс для Win NT/2000
Выходной формат          : Пользовательский кодировщик
Выбранный битрейт        : 768 kBit/s
Качество                 : Высокий
Добавление ID3-тэга      : Да
Утилита сжатия           : C:\Program Files\Exact Audio Copy\FLAC\FLAC.EXE
Дополнительные параметры : -8 -V -T "ARTIST=%a" -T "TITLE=%t" -T "ALBUM=%g" -T "DATE=%y" -T "TRACKNUMBER=%n" -T "GENRE=%m" -T "COMMENT=%e" %s -o %d
TOC извлечённого CD
     Трек |   Старт  | Длительность | Начальный сектор | Конечный сектор
    ---------------------------------------------------------------------
       1  |  0:00.00 |    4:15.30   |           0      |      19154
       2  |  4:15.30 |    3:51.63   |       19155      |      36542
       3  |  8:07.18 |    4:02.54   |       36543      |      54746
       4  | 12:09.72 |    3:57.21   |       54747      |      72542
       5  | 16:07.18 |    4:08.06   |       72543      |      91148
       6  | 20:15.24 |    3:12.30   |       91149      |     105578
       7  | 23:27.54 |    3:31.67   |      105579      |     121470
       8  | 26:59.46 |    2:35.25   |      121471      |     133120
       9  | 29:34.71 |    3:59.12   |      133121      |     151057
      10  | 33:34.08 |    3:36.63   |      151058      |     167320
      11  | 37:10.71 |    3:37.06   |      167321      |     183601
      12  | 40:48.02 |    3:52.01   |      183602      |     201002
      13  | 44:40.03 |    3:31.57   |      201003      |     216884
      14  | 48:11.60 |    4:07.22   |      216885      |     235431
      15  | 52:19.07 |    3:17.69   |      235432      |     250275
      16  | 55:37.01 |    4:00.43   |      250276      |     268318
      17  | 59:37.44 |    3:53.01   |      268319      |     285794
      18  | 63:30.45 |    2:40.54   |      285795      |     297848
Характеристики диапазона извлечения и сообщения об ошибках
Выбранный диапазон
     Имя файла D:\VA- MTV Top the Hits 2013 3CD(Flac)\CD1\Va - MTV Top the Hits 2013 CD1.wav
     Пиковый уровень 90.7 %
     Качество диапазона 100.0 %
     CRC теста 88447CC2
     CRC копии 88447CC2
     Копирование... OK
Ошибок не произошло
Конец отчёта

Отчёт auCDtect Task manager:

-----------------------
DON'T MODIFY THIS FILE
-----------------------
PERFORMER: auCDtect Task Manager, ver. 1.5.1RC6 build 1.5.1.7
Copyright (c) 2008-2010 y-soft. All rights reserved
http://y-soft.org
ANALYZER: auCDtect: CD records authenticity detector, version 0.8.2
Copyright (c) 2004 Oleg Berngardt. All rights reserved.
Copyright (c) 2004 Alexander Djourik. All rights reserved.
FILE: Va - MTV Top the Hits 2013 CD1.flac
  Size: 493913625 Hash: FD5D883B0680B1C83DE8B5D848C586EE Accuracy: -m0
  Conclusion: CDDA 100%
  Signature: 6216224E5B07A3AC830AA1AC905A7E8D5803B142

Спектрограмма

CD2:

Продолжительность:00:58:29
1. Redfoo - Bring Out The Bottles (3:58)
2. Kaz James - Drums (Clean Radio Edit) (3:23)
3. Conor Maynard Ft. Wiley - Animal (3:26)
4. Hook N Sling - Reason (3:35)
5. Bingo Players Ft. Far East Movement - Get Up (Rattle) (2:47)
6. Flo Rida Ft. Lil Wayne - Let It Roll Pt 2 (3:31)
7. Kesha - C'mon (3:33)
8. Rita Ora - Radioactive (4:13)
9. Bruno Mars - When I Was Your Man (3:33)
10. Rihanna Ft. Mikky Ekko - Stay (4:03)
11. Justin Timberlake Ft. Jay-Z - Suit & Tie (4:30)
12. One Direction - Kiss You (3:04)
13. James Arthur - Impossible (3:29)
14. Birds Of Tokyo - Lanterns (3:58)
15. Pete Murray Ft. Fantine - Blue Sky Blue (3:43)
16. Mcfly - Love Is Easy (3:42)

Отчёт ЕАС:

Exact Audio Copy V0.99 prebeta 5 from 4. May 2009
Отчёт EAC об извлечении, выполненном 18. марта 2013, 12:19
Various / Top the Hits 2013 CD2
Дисковод: PIONER  BDR206   Adapter: 2  ID: 0
Режим чтения                 : Достоверность
Использование точного потока : Да
Отключение кэша аудио        : Да
Использование указателей C2  : Нет
Коррекция смещения при чтении                     : 0
Способность читать области Lead-in и Lead-out     : Нет
Заполнение пропущенных сэмплов тишиной            : Да
Удаление блоков с тишиной в начале и конце        : Нет
При вычислениях CRC использовались нулевые сэмплы : Нет
Интерфейс                                         : Встроенный Win32-интерфейс для Win NT/2000
Выходной формат          : Пользовательский кодировщик
Выбранный битрейт        : 768 kBit/s
Качество                 : Высокий
Добавление ID3-тэга      : Да
Утилита сжатия           : C:\Program Files\Exact Audio Copy\FLAC\FLAC.EXE
Дополнительные параметры : -8 -V -T "ARTIST=%a" -T "TITLE=%t" -T "ALBUM=%g" -T "DATE=%y" -T "TRACKNUMBER=%n" -T "GENRE=%m" -T "COMMENT=%e" %s -o %d
TOC извлечённого CD
     Трек |   Старт  | Длительность | Начальный сектор | Конечный сектор
    ---------------------------------------------------------------------
       1  |  0:00.00 |    4:00.72   |           0      |      18071
       2  |  4:00.72 |    3:25.00   |       18072      |      33446
       3  |  7:25.72 |    3:27.48   |       33447      |      49019
       4  | 10:53.45 |    3:37.06   |       49020      |      65300
       5  | 14:30.51 |    2:48.51   |       65301      |      77951
       6  | 17:19.27 |    3:33.45   |       77952      |      93971
       7  | 20:52.72 |    3:34.06   |       93972      |     110027
       8  | 24:27.03 |    4:15.16   |      110028      |     129168
       9  | 28:42.19 |    3:35.43   |      129169      |     145336
      10  | 32:17.62 |    4:04.52   |      145337      |     163688
      11  | 36:22.39 |    4:32.34   |      163689      |     184122
      12  | 40:54.73 |    3:05.47   |      184123      |     198044
      13  | 44:00.45 |    3:30.33   |      198045      |     213827
      14  | 47:31.03 |    4:00.16   |      213828      |     231843
      15  | 51:31.19 |    3:45.09   |      231844      |     248727
      16  | 55:16.28 |    3:42.40   |      248728      |     265417
Характеристики диапазона извлечения и сообщения об ошибках
Выбранный диапазон
     Имя файла D:\VA- MTV Top the Hits 2013 3CD(Flac)\CD2\Various - MTV Top the Hits 2013 CD2.wav
     Пиковый уровень 90.2 %
     Качество диапазона 100.0 %
     CRC теста 06E77318
     CRC копии 06E77318
     Копирование... OK
Ошибок не произошло
Конец отчёта

Отчёт auCDtect Task manager:

-----------------------
DON'T MODIFY THIS FILE
-----------------------
PERFORMER: auCDtect Task Manager, ver. 1.5.1RC6 build 1.5.1.7
Copyright (c) 2008-2010 y-soft. All rights reserved
http://y-soft.org
ANALYZER: auCDtect: CD records authenticity detector, version 0.8.2
Copyright (c) 2004 Oleg Berngardt. All rights reserved.
Copyright (c) 2004 Alexander Djourik. All rights reserved.
FILE: Various - MTV Top the Hits 2013 CD2.flac
  Size: 426635542 Hash: 1EBA1373A29EA29C37AB71D703B671EB Accuracy: -m0
  Conclusion: CDDA 100%
  Signature: D19C7C20F5365222AB449F117643CD68A4D4C629

Спектрограмма

CD3:

Продолжительность:01:08:49
1. Pitbull Ft. Christina Aguilera - Feel This Moment (3:50)
2. Rihanna Ft. David Guetta - Right Now (3:02)
3. The Potbelleez - Saved In A Bottle (3:05)
4. Felix Da Housecat Ft. Will.I.Am - Burn The Disco (3:05)
5. Peking Duk - The Way You Are (2:17)
6. The Presets - Promises (Life Like) (3:08)
7. Flux Pavillion Ft. Childish Gambino - Do Or Die (3:10)
8. Taylor Swift - 22 (3:49)
9. Pink - Just Give Me A Reason (4:04)
10. Swift K.I.D Ft. Guy Sebastian - Bed Of Clouds (3:50)
11. Justin Timberlake - Mirrors (4:38)
12. Nelly - Hey Porsche (3:29)
13. The Lonely Island Ft. Adam Levine - Yolo (3:09)
14. Fall Out Boy - My Songs Know What You Did In The Dark (Light Em Up) (3:05)
15. Bella Ferraro - Set Me On Fire (3:22)
16. Titanium - I Won't Give Up (3:39)
17. Reece Mastin - Timeless (3:55)
18. Macklemore & Ryan Lewis - Same Love (5:20)
19. Sound City - From Can To Can't (4:52)

Отчёт ЕАС:

Exact Audio Copy V0.99 prebeta 5 from 4. May 2009
Отчёт EAC об извлечении, выполненном 18. марта 2013, 12:52
Va / Top the Hits 2013 CD3
Дисковод: PIONER  BDR206   Adapter: 2  ID: 0
Режим чтения                 : Достоверность
Использование точного потока : Да
Отключение кэша аудио        : Да
Использование указателей C2  : Нет
Коррекция смещения при чтении                     : 0
Способность читать области Lead-in и Lead-out     : Нет
Заполнение пропущенных сэмплов тишиной            : Да
Удаление блоков с тишиной в начале и конце        : Нет
При вычислениях CRC использовались нулевые сэмплы : Нет
Интерфейс                                         : Встроенный Win32-интерфейс для Win NT/2000
Выходной формат          : Пользовательский кодировщик
Выбранный битрейт        : 768 kBit/s
Качество                 : Высокий
Добавление ID3-тэга      : Да
Утилита сжатия           : C:\Program Files\Exact Audio Copy\FLAC\FLAC.EXE
Дополнительные параметры : -8 -V -T "ARTIST=%a" -T "TITLE=%t" -T "ALBUM=%g" -T "DATE=%y" -T "TRACKNUMBER=%n" -T "GENRE=%m" -T "COMMENT=%e" %s -o %d
TOC извлечённого CD
     Трек |   Старт  | Длительность | Начальный сектор | Конечный сектор
    ---------------------------------------------------------------------
       1  |  0:00.00 |    3:52.09   |           0      |      17408
       2  |  3:52.09 |    3:04.30   |       17409      |      31238
       3  |  6:56.39 |    3:06.36   |       31239      |      45224
       4  | 10:03.00 |    3:07.33   |       45225      |      59282
       5  | 13:10.33 |    2:18.73   |       59283      |      69705
       6  | 15:29.31 |    3:10.01   |       69706      |      83956
       7  | 18:39.32 |    3:12.13   |       83957      |      98369
       8  | 21:51.45 |    3:51.12   |       98370      |     115706
       9  | 25:42.57 |    4:05.33   |      115707      |     134114
      10  | 29:48.15 |    3:52.33   |      134115      |     151547
      11  | 33:40.48 |    4:40.18   |      151548      |     172565
      12  | 38:20.66 |    3:30.68   |      172566      |     188383
      13  | 41:51.59 |    3:10.33   |      188384      |     202666
      14  | 45:02.17 |    3:07.42   |      202667      |     216733
      15  | 48:09.59 |    3:23.48   |      216734      |     232006
      16  | 51:33.32 |    3:41.13   |      232007      |     248594
      17  | 55:14.45 |    3:56.72   |      248595      |     266366
      18  | 59:11.42 |    5:22.19   |      266367      |     290535
      19  | 64:33.61 |    4:52.03   |      290536      |     312438
Характеристики диапазона извлечения и сообщения об ошибках
Выбранный диапазон
     Имя файла D:\VA- MTV Top the Hits 2013 3CD(Flac)\CD3\VA - MTV Top the Hits 2013 CD3.wav
     Пиковый уровень 90.3 %
     Качество диапазона 100.0 %
     CRC теста B199EDB5
     CRC копии B199EDB5
     Копирование... OK
Ошибок не произошло
Конец отчёта

Отчёт auCDtect Task manager:

-----------------------
DON'T MODIFY THIS FILE
-----------------------
PERFORMER: auCDtect Task Manager, ver. 1.5.1RC6 build 1.5.1.7
Copyright (c) 2008-2010 y-soft. All rights reserved
http://y-soft.org
ANALYZER: auCDtect: CD records authenticity detector, version 0.8.2
Copyright (c) 2004 Oleg Berngardt. All rights reserved.
Copyright (c) 2004 Alexander Djourik. All rights reserved.
FILE: VA - MTV Top the Hits 2013 CD3.flac
  Size: 490011693 Hash: 57E58A81EC1FD54F86C296E7175FAC33 Accuracy: -m0
  Conclusion: CDDA 100%
  Signature: 088E4B1FBECDC632A8AA0BF2602EE41697699DF0

Спектрограмма

Просьба ссылаться при репостинге.
Время раздачи: 24/7 - круглосуточно

[Цитировать]



Показать сообщения:    

Текущее время: 10-Дек 04:15

Часовой пояс: UTC + 3


Вы не можете начинать темы
Вы не можете отвечать на сообщения
Вы не можете редактировать свои сообщения
Вы не можете удалять свои сообщения
Вы не можете голосовать в опросах
Вы не можете прикреплять файлы к сообщениям
Вы не можете скачивать файлы

!ВНИМАНИЕ!
Сайт не предоставляет электронные версии произведений, а занимается лишь коллекционированием и каталогизацией ссылок, присылаемых и публикуемых на форуме нашими читателями. Если вы являетесь правообладателем какого-либо представленного материала и не желаете, чтобы ссылка на него находилась в нашем каталоге, свяжитесь с нами, и мы незамедлительно удалим ее. Файлы для обмена на трекере предоставлены пользователями сайта, и администрация не несет ответственности за их содержание. Просьба не заливать файлы, защищенные авторскими правами, а также файлы нелегального содержания!