[ Сегодня идет свободное скачивание без начисления Download ]


Статистика раздачи
Нет
 
   
 
Top  
 
 
-Интимный дневник / The Pillow Book (1996) BDRip-«From the creator of The Cook, The Thief, His Wife and Her Lover comes a sensuous tale of passion, obsession and revenge.» Русское название: Интимный дневник
Оригинальное название: The Pillow Book
Выпущено: Франция, Великобритания, Нидерланды, Люксембург, Alpha Films, Channel Four Films, Delux Productions, Eurimages, Kasander & Wigman Productions, Nederlands Fonds voor de Film, Studio Canal
Год выпуска: 1996
Жанр: Триллер, Драма, Мелодрама
Возраст: 18+ |зрителям, достигшим 18 лет|
Описание фильма:
Нагико, с детства влюбленная в каллиграфию и роман Сей Сёнагон «Записки у изголовья», сбежала от жестокого мужа, чтобы в одиночку наслаждаться жизнью, литературой, менять любовников и искать моделей для совершенствования искусства написания текстов на мужских телах. Ее английский любовник Джером убеждает Нагико использовать моделей как бумагу для своих произведений. Следуя совету молодого красавца англичанина, в голове ее зреет грациозный план отмщения ее бесчестному издателю, и она посылает ему книги - тринадцать любовников, тринадцать тел, тринадцать книг, последняя из которых - Книга Смерти...
Режиссер: Питер Гринуэй
Актеры: Вивиан Ву, Юэн МакГрегор, Ёси Оида, Кен Огата, Хидеко Ёсида, Джуди Онгг, Кен Мицуйси, Ютака Хонда, Барбара Лотт, Мивако Кавай
Продолжительность: 02:06:17
Перевод: Профессиональный (двухголосый, закадровый) НТВ +, Авторский Одноголосый закадровый С.Визгунова (отдельно)
Релиз группа:
Язык субтитров: Русский
Вид субтитров: Отдельным файлом

Дата мировой премьеры: 12 мая 1996
Дата выхода DVD релиза: 2 июня 2011
Видеокодек: Xvid
Битрейт видео: ~2074 Кбит/сек
Размер кадра: 704x528
Качество видео: BDRip (источник: / Blu-ray / 1080p)
Аудио #1: AC3 Dolby Digital, 2/0 (L,R), ~192 kbps avg - Русский
Аудио #2: AC3 Dolby Digital, 2/0 (L,R), ~192 kbps avg - Английский
Аудио #3: AC3 Dolby Digital, 2/0 (L,R), ~192 kbps avg - Русский (С.Визгунов, отдельно)

MediaInfo:

Общее
Полное имя : Intimnyj.dnevnik.1996\Intimnyj.dnevnik.1996.DUAL.BDRip.XviD.AC3.avi
Формат : AVI
Формат/Информация : Audio Video Interleave
Профиль формата : OpenDML
Размер файла : 2,18 Гбайт
Продолжительность : 2 ч. 6 м.
Общий поток : 2476 Кбит/с
Примечание : 14.03.2013
Видео
Идентификатор : 0
Формат : MPEG-4 Visual
Профиль формата : Advanced Simple@L5
Параметр BVOP формата : 1
Параметр QPel формата : Нет
Параметр GMC формата : Без точки перехода
Параметр матрицы формата : Выборочная
Идентификатор кодека : XVID
Идентификатор кодека/Подсказка : XviD
Продолжительность : 2 ч. 6 м.
Битрейт : 2074 Кбит/сек
Ширина : 704 пикселя
Высота : 528 пикселей
Соотношение сторон : 4:3
Частота кадров : 24,000 кадра/сек
Цветовое пространство : YUV
Субдискретизация насыщенности : 4:2:0
Битовая глубина : 8 бит
Тип развёртки : Прогрессивная
Метод сжатия : С потерями
Бит/(Пиксели*Кадры) : 0.232
Размер потока : 1,83 Гбайт (84%)
Библиотека кодирования : XviD 65
Аудио #1
Идентификатор : 1
Формат : AC-3
Формат/Информация : Audio Coding 3
Расширение режима : CM (complete main)
Параметр Endianness формата : Big
Идентификатор кодека : 2000
Продолжительность : 2 ч. 6 м.
Вид битрейта : Постоянный
Битрейт : 192 Кбит/сек
Каналы : 2 канала
Расположение каналов : Front: L R
Частота : 48,0 КГц
Битовая глубина : 16 бит
Метод сжатия : С потерями
Размер потока : 173 Мбайт (8%)
Выравнивание : Разделение по промежуткам
Продолжительность промежутка : 42 мс. (1,00 видеокадр)
Время предзагрузки промежутка : 500 мс.
Аудио #2
Идентификатор : 2
Формат : AC-3
Формат/Информация : Audio Coding 3
Расширение режима : CM (complete main)
Параметр Endianness формата : Big
Идентификатор кодека : 2000
Продолжительность : 2 ч. 6 м.
Вид битрейта : Постоянный
Битрейт : 192 Кбит/сек
Каналы : 2 канала
Расположение каналов : Front: L R
Частота : 48,0 КГц
Битовая глубина : 16 бит
Метод сжатия : С потерями
Размер потока : 173 Мбайт (8%)
Выравнивание : Разделение по промежуткам
Продолжительность промежутка : 42 мс. (1,00 видеокадр)
Время предзагрузки промежутка : 500 мс.
Общее
Полное имя : Intimnyj.dnevnik.1996\Intimnyj.dnevnik.1996.DUAL.BDRip.XviD.AC3.AVO.VIZGUNOV.ac3
Формат : AC-3
Формат/Информация : Audio Coding 3
Размер файла : 173 Мбайт
Продолжительность : 2 ч. 6 м.
Режим общего битрейта : Постоянный
Общий поток : 192 Кбит/сек
Аудио
Формат : AC-3
Формат/Информация : Audio Coding 3
Расширение режима : CM (complete main)
Параметр Endianness формата : Big
Продолжительность : 2 ч. 6 м.
Вид битрейта : Постоянный
Битрейт : 192 Кбит/сек
Каналы : 2 канала
Расположение каналов : Front: L R
Частота : 48,0 КГц
Битовая глубина : 16 бит
Метод сжатия : С потерями
Размер потока : 173 Мбайт (100%)
Общее
Полное имя : Intimnyj.dnevnik.1996\Intimnyj.dnevnik.1996.DUAL.BDRip.XviD.AC3.RUS.srt
Размер файла : 24,7 Кбайт

Рейтинг MPAA:

Рейтинг NC-17 - Лицам до 17 лет просмотр запрещен

Этот рейтинг подразумевает, что все родители прекрасно отдают себе отчет, что продукт, получивший такое ограничение, не предназначен для просмотра лицами, не достигшими 17-летнего возраста. Фильм может содержать довольно откровенные сексуальные моменты, соответствующий слэнг и эпизоды с чрезвычайным насилием. Однако рейтинг не подразумевает, что фильм является непристойным или порнографическим.
Многие кинотеатры предпочитает не связываться с фильмами, получившими рейтинг NC-17. Кроме того, такие фильмы запрещено рекламировать в средствах массовой информации (телевидение, радио, печать и т.д.).
Скриншоты:

[Цитировать]



Показать сообщения:    

Текущее время: 10-Дек 21:35

Часовой пояс: UTC + 3


Вы не можете начинать темы
Вы не можете отвечать на сообщения
Вы не можете редактировать свои сообщения
Вы не можете удалять свои сообщения
Вы не можете голосовать в опросах
Вы не можете прикреплять файлы к сообщениям
Вы не можете скачивать файлы

!ВНИМАНИЕ!
Сайт не предоставляет электронные версии произведений, а занимается лишь коллекционированием и каталогизацией ссылок, присылаемых и публикуемых на форуме нашими читателями. Если вы являетесь правообладателем какого-либо представленного материала и не желаете, чтобы ссылка на него находилась в нашем каталоге, свяжитесь с нами, и мы незамедлительно удалим ее. Файлы для обмена на трекере предоставлены пользователями сайта, и администрация не несет ответственности за их содержание. Просьба не заливать файлы, защищенные авторскими правами, а также файлы нелегального содержания!