[ Сегодня идет свободное скачивание без начисления Download ]


Статистика раздачи
Нет
 
   
 
Top  
 
 
-Не могу дождаться / Can't Hardly Wait (1998) BDRip- Русское название: Не могу дождаться
Оригинальное название: Can't Hardly Wait
Страна: США
Студия: Columbia Pictures
Год выпуска: 1998
Жанр: Комедия-Описание фильма:
Выпускной вечер в полном разгаре. Самое время безмятежно веселиться, вспоминая радостную пору ученичества. Но Престон Майерс настроен очень серьезно.
Ведь утром он уезжает из города и, возможно, больше никогда не увидит красавицу Аманду, королеву бала и его сердца. Четыре года юноша скрывал свое чувство. Грандиозная вечеринка — последний шанс наверстать упущенное.-Режиссер: Гарри Элфонт / Harry Elfont, Дебора Каплан / Deborah Kaplan
Актеры: Дженнифер Лав Хьюитт, Итэн Эмбри, Чарли Корсмо, Лорен Эмброуз, Питер Фачинелли, Сет Грин, Мишель Брукхерст, Александр Мартин, Эрик Палладино, Чэннон Роу-Продолжительность: 01:40:31
Перевод: Профессиональный (двухголосый закадровый) + Профессиональный (двухголосый закадровый) - Студия Элром
Оригинальная аудиодорожка: английский
Cубтитры: русские, английские- -Видеокодек: MPEG-4 AVC/H.264
Битрейт видео: ~9 540 Kbps
Размер кадра: 1920x1040p
Качество видео: BDRip 1080p-Аудио 1: Русский AC3 2.0ch, 192 Kbps, 48000 Hz | Профессиональный
Аудио 2: РУсский AC3 2.0ch, 192 Kbps, 48000 Hz | Студия Элром
Аудио 3: Английский DTS 5.1ch, 1510Kbps, 48000 Hz | Oригинал
-

MediaInfo:

General
Complete name : O:\Ne.mogu.dozhdatsja.1998.x264.BDRip.1080p.mkv
Format : Matroska
File size : 8.19 GiB
Duration : 1h 40mn
Overall bit rate : 11.7 Mbps
Movie name : Не могу дождаться / Can't Hardly Wait (1998)
Encoded date : UTC 2011-06-16 19:51:15
Writing application : mkvmerge v4.8.0 ('I Got The...') сборка от May 24 2011 03:12:58
Writing library : libebml v1.2.0 + libmatroska v1.1.0
Cover : Yes
Video
ID : 1
Format : AVC
Format/Info : Advanced Video Codec
Format profile : High@L4.1
Format settings, CABAC : Yes
Format settings, ReFrames : 4 frames
Muxing mode : Container profile=Unknown@4.1
Codec ID : V_MPEG4/ISO/AVC
Duration : 1h 40mn
Bit rate : 9 540 Kbps
Nominal bit rate : 9 770 Kbps
Width : 1 920 pixels
Height : 1 040 pixels
Display aspect ratio : 16:9
Frame rate : 23.976 fps
Resolution : 8 bits
Colorimetry : 4:2:0
Scan type : Progressive
Bits/(Pixel*Frame) : 0.199
Stream size : 6.69 GiB (82%)
Title : Can't.Hardly.Wait.1998
Writing library : x264 core 68 r1195M 5d75a9b
Encoding settings : cabac=1 / ref=4 / deblock=1:-3:-3 / analyse=0x3:0x113 / me=umh / subme=9 / psy_rd=1.1:0.2 / mixed_ref=1 / me_range=26 / chroma_me=1 / trellis=1 / 8x8dct=1 / cqm=2 / deadzone=21,11 / chroma_qp_offset=-3 / threads=12 / nr=0 / decimate=1 / mbaff=0 / bframes=3 / b_pyramid=1 / b_adapt=1 / b_bias=0 / direct=3 / wpredb=1 / keyint=250 / keyint_min=25 / scenecut=40 / rc=2pass / bitrate=9770 / ratetol=1.0 / qcomp=0.60 / qpmin=10 / qpmax=51 / qpstep=4 / cplxblur=20.0 / qblur=0.5 / ip_ratio=1.40 / pb_ratio=1.30 / aq=1:1.00
Audio #1
ID : 2
Format : AC-3
Format/Info : Audio Coding 3
Codec ID : A_AC3
Duration : 1h 40mn
Bit rate mode : Constant
Bit rate : 192 Kbps
Channel(s) : 2 channels
Channel positions : L R
Sampling rate : 48.0 KHz
Stream size : 138 MiB (2%)
Title : AC3 2.0ch 192 Kbps - DVO(P)
Language : Russian
Audio #2
ID : 3
Format : AC-3
Format/Info : Audio Coding 3
Codec ID : A_AC3
Duration : 1h 40mn
Bit rate mode : Constant
Bit rate : 192 Kbps
Channel(s) : 2 channels
Channel positions : L R
Sampling rate : 48.0 KHz
Stream size : 138 MiB (2%)
Title : AC3 2.0ch 192 Kbps - DVO(L)
Language : Russian
Audio #3
ID : 4
Format : DTS
Format/Info : Digital Theater Systems
Codec ID : A_DTS
Duration : 1h 40mn
Bit rate mode : Constant
Bit rate : 1 510 Kbps
Channel(s) : 6 channels
Channel positions : Front: L C R, Surround: L R, LFE
Sampling rate : 48.0 KHz
Resolution : 24 bits
Video delay : 11ms
Stream size : 1.06 GiB (13%)
Title : DTS 5.1ch 1536Kbps - ENG
Text #1
ID : 5
Format : UTF-8
Codec ID : S_TEXT/UTF8
Codec ID/Info : UTF-8 Plain Text
Language : Russian
Text #2
ID : 6
Format : UTF-8
Codec ID : S_TEXT/UTF8
Codec ID/Info : UTF-8 Plain Text
-Скриншоты:
Время раздачи: 24/7 - круглосуточно

[Цитировать]



Показать сообщения:    

Текущее время: 08-Дек 07:05

Часовой пояс: UTC + 3


Вы не можете начинать темы
Вы не можете отвечать на сообщения
Вы не можете редактировать свои сообщения
Вы не можете удалять свои сообщения
Вы не можете голосовать в опросах
Вы не можете прикреплять файлы к сообщениям
Вы не можете скачивать файлы

!ВНИМАНИЕ!
Сайт не предоставляет электронные версии произведений, а занимается лишь коллекционированием и каталогизацией ссылок, присылаемых и публикуемых на форуме нашими читателями. Если вы являетесь правообладателем какого-либо представленного материала и не желаете, чтобы ссылка на него находилась в нашем каталоге, свяжитесь с нами, и мы незамедлительно удалим ее. Файлы для обмена на трекере предоставлены пользователями сайта, и администрация не несет ответственности за их содержание. Просьба не заливать файлы, защищенные авторскими правами, а также файлы нелегального содержания!