[ Сегодня идет свободное скачивание без начисления Download ]


Статистика раздачи
Нет
 
   
 
Top  
 
 
-Трансформеры: Прайм (2 сезон, 26 серий из 26) / Transformers: Prime (2012) BDRip (т/к "Карусель") Русское название: Трансформеры: Прайм
Оригинальное название: Transformers: Prime
Год выпуска: 2012
Жанр: Компьютерная анимация, Детский, Приключения
Язык: Русский
Описание:
Трансформеры: Прайм являются очередной франшизой сериала Трансформеры, который вышел осенью 2010 года.
Новые Трансформеры идут по сюжету Transformers: War for Cybertron, основанный на видеоигре, в которой события происходят на родной планете Трансформеров.
Новая история войны Десептиконов и Автоботов происходит на Земле.
В то время, пока идет война между роботами, Мегатрон пытается найти и управлять Темным Энергоном, чтобы с его помощью уничтожить Автоботов.
Режиссер: Дэвид Хартман, Тодд Ватерман
Персонажи: Оптимус Прайм, Мегатрон, Старскрим, Сайдуэйз, Уилджек, Люди
Роли озвучивали: Питер Каллен, Фрэнк Уэлкер, Стивен Блум, Джеффри Комбс, Сумали Монтано, Кевин Майкл Ричардсон, Таня Гунади, Джошуа Китон, Энди Пессоа, Эрни Хадсон и др.
Продолжительность: каждая серия ~ 00:22:00
Перевод: Дублированный-
Возраст 6+: зрителям, достигшим 6 лет-Автор рипа: DredForry
Качество: BDRip 400p (BDRemux 1080р)
Формат: AVI
Видео кодек: XviD
Аудио кодек: AC3
Видео: 720x400, 23.976 fps, 16:9, MPEG-4 ~1475 kbps avg 0.213 bit/pixel
Аудио #01: Аудио: AC3, 48 kHz, 2 ch, 192.00 kbps (Дублированный)[ЗАО "1 канал"]
Аудио #02: Аудио: AC3, 48 kHz, 2 ch, 192.00 kbps (Английский)

Отчет MediaInfo

Format : AVI
Format/Info : Audio Video Interleave
File size : 295 MiB
Duration : 22mn 7s
Overall bit rate : 1 863 Kbps
Writing application : VirtualDubMod 1.5.10.2 (build 2542/release)
Writing library : VirtualDubMod build 2542/release
Video
ID : 0
Format : MPEG-4 Visual
Format profile : Advanced [email protected]
Format settings, BVOP : 2
Format settings, QPel : No
Format settings, GMC : No warppoints
Format settings, Matrix : Default (H.263)
Muxing mode : Packed bitstream
Codec ID : XVID
Codec ID/Hint : XviD
Duration : 22mn 7s
Bit rate : 1 472 Kbps
Width : 720 pixels
Height : 400 pixels
Display aspect ratio : 16:9
Frame rate : 23.976 fps
Color space : YUV
Chroma subsampling : 4:2:0
Bit depth : 8 bits
Scan type : Progressive
Compression mode : Lossy
Bits/(Pixel*Frame) : 0.213
Stream size : 233 MiB (79%)
Writing library : XviD 64
Audio #1
ID : 1
Format : AC-3
Format/Info : Audio Coding 3
Mode extension : CM (complete main)
Format settings, Endianness : Big
Codec ID : 2000
Duration : 22mn 7s
Bit rate mode : Constant
Bit rate : 192 Kbps
Channel(s) : 2 channels
Channel positions : Front: L R
Sampling rate : 48.0 KHz
Bit depth : 16 bits
Compression mode : Lossy
Stream size : 30.4 MiB (10%)
Alignment : Aligned on interleaves
Interleave, duration : 160 ms (3.84 video frames)
Interleave, preload duration : 640 ms
Audio #2
ID : 2
Format : AC-3
Format/Info : Audio Coding 3
Mode extension : CM (complete main)
Format settings, Endianness : Big
Codec ID : 2000
Duration : 22mn 7s
Bit rate mode : Constant
Bit rate : 192 Kbps
Channel(s) : 2 channels
Channel positions : Front: L R
Sampling rate : 48.0 KHz
Bit depth : 16 bits
Compression mode : Lossy
Stream size : 30.4 MiB (10%)
Alignment : Aligned on interleaves
Interleave, duration : 160 ms (3.84 video frames)
Interleave, preload duration : 640 ms

Список серий:

Эпизод 01: Orion Pax, Part 1
Эпизод 02: Orion Pax, Part 1
Эпизод 03: Orion Pax, Part 1
Эпизод 04: Operation Bumblebee, Part 1
Эпизод 05: Operation Bumblebee, Part 1
Эпизод 06: Loose Cannons
Эпизод 07: Crossfire
Эпизод 08: Nemesis Prime
Эпизод 09: Grill
Эпизод 10: Armada
Эпизод 11: Flying Mind
Эпизод 12: Tunnel Vision
Эпизод 13: Triangulation
Эпизод 14: Triage
Эпизод 15: Toxicity
Эпизод 16: Hurt
Эпизод 17: Out of the past
Эпизод 18: New Recruit
Эпизод 19: The Human Factor
Эпизод 20: Legacy
Эпизод 21: Alpha; Omega
Эпизод 22: Hard Knocks
Эпизод 23: Inside Job
Эпизод 24: Patch
Эпизод 25: Regeneration
Эпизод 26: Darkest Hour
Скриншоты:

Время раздачи: c8:00 до 21:00-

[Цитировать]



Показать сообщения:    

Текущее время: 04-Дек 23:22

Часовой пояс: UTC + 3


Вы не можете начинать темы
Вы не можете отвечать на сообщения
Вы не можете редактировать свои сообщения
Вы не можете удалять свои сообщения
Вы не можете голосовать в опросах
Вы не можете прикреплять файлы к сообщениям
Вы не можете скачивать файлы

!ВНИМАНИЕ!
Сайт не предоставляет электронные версии произведений, а занимается лишь коллекционированием и каталогизацией ссылок, присылаемых и публикуемых на форуме нашими читателями. Если вы являетесь правообладателем какого-либо представленного материала и не желаете, чтобы ссылка на него находилась в нашем каталоге, свяжитесь с нами, и мы незамедлительно удалим ее. Файлы для обмена на трекере предоставлены пользователями сайта, и администрация не несет ответственности за их содержание. Просьба не заливать файлы, защищенные авторскими правами, а также файлы нелегального содержания!