[ Сегодня идет свободное скачивание без начисления Download ]


Статистика раздачи
Нет
 
   
 
Top  
 
 
-Охота / Jagten (2013) HDRip- Русское название: Охота
Оригинальное название: Jagten
Год выпуска: 2013
Производство: Дания, Film i Vast, Zentropa Entertainments
Жанр: Драма
Перевод: Многоголосый закадровый, профессиональный
Возраст: 16+ |зрителям, достигшим 16 лет|
Дата мировой премьеры: 20 мая 2012
Дата российской премьеры: 21 февраля 2013
Дата выхода DVD релиза: 1 апреля 2013
Режиссер: Томас Винтерберг
Продюсер: Сиссе Граум Олсен, Мортен Кауфман, Томас Винтерберг
Актеры: Мадс Миккельсен, Томас Бо Ларсен, Анника Веддеркопп, Лассе Фогельстрём, Суссе Уолд, Анне Луизе Хассинг, Ларс Ранте, Александра Рапапорт, Оле Дюпон, Рикке Бергманн, Катрин Бригманн, Аллан Вибор Кристенсен
Описание фильма:
После мучительного развода 40-летний Лукас находит новую подругу, новую работу и стремится восстановить отношения со своим сыном-подростком Маркусом. Но ему что-то мешает… Что-то, казалось бы, незначительное. Замечание, сделанное между прочим. Мелкая ложь. И вот накануне Рождества, когда падает снег и зажигаются огни на елке, ложь разрастается и проникает повсюду, как невидимый вирус. Растет недоверие, и все вокруг оказываются в состоянии коллективной истерии. Лукас вынужден бороться за свою жизнь и достоинство.

Продолжительность: 01:50:39
Качество видео: HDRip
Видеокодек: Xvid
Битрейт видео: ~1236 Кбит/с
Размер кадра: 720x304
Аудио #1: MP3, 2 ch, 256 Кбит/с, Русский
Аудио #2: AC3, 6 ch, 192 Кбит/с, французкий

MediaInfo:

Общее
Полное имя : Ohota.2012.P.HDRip.avi
Формат : AVI
Формат/Информация : Audio Video Interleave
Размер файла : 1,37 Гбайт
Продолжительность : 1 ч. 55 м.
Общий поток : 1698 Кбит/сек
Программа кодирования : VirtualDubMod 1.5.10.2 (build 2540/release)
Библиотека кодирования : VirtualDubMod build 2540/release
Видео
Идентификатор : 0
Формат : MPEG-4 Visual
Профиль формата : Advanced Simple@L5
Параметр BVOP формата : 2
Параметр QPel формата : Нет
Параметр GMC формата : Без точки перехода
Параметр матрицы формата : Default (H.263)
Режим смешивания : Сжатый битовый поток
Идентификатор кодека : XVID
Идентификатор кодека/Подсказка : XviD
Продолжительность : 1 ч. 55 м.
Битрейт : 1236 Кбит/сек
Ширина : 720 пикселей
Высота : 304 пикселя
Соотношение сторон : 2,35:1
Частота кадров : 24,000 кадра/сек
Цветовое пространство : YUV
Субдискретизация насыщенности : 4:2:0
Битовая глубина : 8 бит
Тип развёртки : Прогрессивная
Метод сжатия : С потерями
Бит/(Пиксели*Кадры) : 0.235
Размер потока : 1021 Мбайт (73%)
Библиотека кодирования : XviD 1.2.1 (UTC 2008-12-04)
Аудио #1
Идентификатор : 1
Формат : MPEG Audio
Версия формата : Version 1
Профиль формата : Layer 3
Режим : Joint stereo
Расширение режима : MS Stereo
Идентификатор кодека : 55
Идентификатор кодека/Подсказка : MP3
Продолжительность : 1 ч. 55 м.
Вид битрейта : Постоянный
Битрейт : 256 Кбит/сек
Каналы : 2 канала
Частота : 48,0 КГц
Метод сжатия : С потерями
Задержка видео : 10 с.
Размер потока : 211 Мбайт (15%)
Выравнивание : Разделение по промежуткам
Продолжительность промежутка : 42 мс. (1,00 видеокадр)
Время предзагрузки промежутка : 504 мс.
Аудио #2
Идентификатор : 2
Формат : AC-3
Формат/Информация : Audio Coding 3
Расширение режима : CM (complete main)
Параметр Endianness формата : Big
Идентификатор кодека : 2000
Продолжительность : 1 ч. 55 м.
Вид битрейта : Постоянный
Битрейт : 192 Кбит/сек
Каналы : 6 каналов
Расположение каналов : Front: L C R, Side: L R, LFE
Частота : 48,0 КГц
Битовая глубина : 16 бит
Метод сжатия : С потерями
Размер потока : 159 Мбайт (11%)
Выравнивание : Разделение по промежуткам
Продолжительность промежутка : 42 мс. (1,00 видеокадр)
Время предзагрузки промежутка : 500 мс.

Рейтинг MPAA:

Рейтинг R - Детям до 17 лет обязательно присутствие родителей

Рейтинг R получают фильмы, в содержании которых обязательно содержится материал, предназначенный только для взрослой аудитории. Родителям рекомендуется хорошо подумать, прежде чем посмотреть такой фильм вместе со своими детьми.
Фильм, получивший рейтинг R, скорее всего содержит сексуальные сцены, эпизоды с употреблением наркотиков, нецензурную брань, фрагменты с насилием и т.д.

Награды:

Британская академия, 2013 год
Номинации (1):
Лучший фильм на иностранном языке
Каннский кинофестиваль, 2012 год
Победитель (1):
Серебряная премия за лучшую мужскую роль (Мадс Миккельсен)
Номинации (1):
Золотая пальмовая ветвь
Европейская киноакадемия, 2012 год
Победитель (1):
Лучшая работа сценариста (Томас Винтерберг, Тобиас Линдхольм)
Номинации (4):
Лучший фильм
Лучшая мужская роль (Мадс Миккельсен)
Лучший режиссер (Томас Винтерберг)
Лучший монтаж
Скриншоты:

[Цитировать]

Топик был перенесен из форума Новинки кинопроката в форум Драма
Henkok



Показать сообщения:    

Текущее время: 09-Дек 20:26

Часовой пояс: UTC + 3


Вы не можете начинать темы
Вы не можете отвечать на сообщения
Вы не можете редактировать свои сообщения
Вы не можете удалять свои сообщения
Вы не можете голосовать в опросах
Вы не можете прикреплять файлы к сообщениям
Вы не можете скачивать файлы

!ВНИМАНИЕ!
Сайт не предоставляет электронные версии произведений, а занимается лишь коллекционированием и каталогизацией ссылок, присылаемых и публикуемых на форуме нашими читателями. Если вы являетесь правообладателем какого-либо представленного материала и не желаете, чтобы ссылка на него находилась в нашем каталоге, свяжитесь с нами, и мы незамедлительно удалим ее. Файлы для обмена на трекере предоставлены пользователями сайта, и администрация не несет ответственности за их содержание. Просьба не заливать файлы, защищенные авторскими правами, а также файлы нелегального содержания!