[ Сегодня идет свободное скачивание без начисления Download ]


Статистика раздачи
Нет
 
   
 
Top  
 
 
-Жена художника / Marie Kroyer (2012) BDRip [H.264]- Русское название: Жена художника
Оригинальное название: Marie Kroyer
Год выпуска: 2012
Производство: Дания, Швеция - Film i Vast, SF Film A/S, SF Film Production
Жанр: Драма
Перевод: Многоголосый закадровый, профессиональный
Озвучка: НТВ+
Субтитры: Вшитые отключаемые
Язык субтитров: Русский, английский
Возраст: 16+ |зрителям, достигшим 16 лет|
Дата мировой премьеры: 27 сентября 2012
Дата российской премьеры: 3 января 2013
Режиссер: Билле Аугуст
Продюсер: Синье Дженсен, Карин Тролле, Джессика Аск
Актеры: Биргитта Йорт Сёренсен, Сёрен Сэттер-Лассен, Сверрир Гуднасон, Лене Мария Кристенсен, Томми Кентер, Нанна Бюль Андресен, Вера Торпп Ларссон, Курт Дрейер, Андерс Гьеллеруп Кох, Метте Мария Аренкиэль
Описание фильма:
В 1889 году датская художница Мари Трипке вышла замуж за Педера Северина Крёйера, всемирно известного живописца. Они были одной из самых знаменитых семейных пар в стране, вызывая всеобщее восхищение. Выдающиеся люди времени — политики, аристократы, ученые, писатели, королевские особы — мечтали о том, чтобы П. С. Крёйер написал их портреты. Для них это было большой честью. И художник за свою работу мог назначить любую цену. А Мари называли самой красивой женщиной Европы. Жизнь семьи, в которой подрастала дочь Вибеке, выглядела идеальной: творчество, высокий статус, богатство. Но за внешним благополучием скрывался настоящий ад. Крёйер страдал наследственным психическим расстройством, часто впадал в депрессии. Из веселого и радостного человека он в одно мгновение мог превращаться в сумасшедшего монстра. Знакомство со шведским композитором Хуго Альвеном, которого Мари полюбила, казалось ей шагом к спасению...

Трейлер
Продолжительность: 01:42:17
Качество видео: BDRip
Видеокодек: MPEG-4 AVC/H.264
Битрейт видео: ~2415 Кбит/с
Размер кадра: 1024х432
Аудио #1: MP3, 2 ch, 192 Кбит/с, Русский
Аудио #2: АС3, 6 ch, 448 Кбит/с, датский

MediaInfo:

Общее
Уникальный идентификатор : 179969117311052831364455136638359727681 (0x8764CA8CB38060BE8CFFCC77ED426E41)
Полное имя : Zhena.hudozhnika.2012.x264.BDRip.mkv
Формат : Matroska
Версия формата : Version 1
Размер файла : 2,19 Гбайт
Продолжительность : 1 ч. 42 м.
Общий поток : 3059 Кбит/сек
Дата кодирования : UTC 2013-03-20 22:52:41
Программа кодирования : mkvmerge v2.1.0 ('Another Place To Fall') built on Aug 19 2007 13:40:07
Библиотека кодирования : libebml v0.7.7 + libmatroska v0.8.1
Видео
Идентификатор : 1
Формат : AVC
Формат/Информация : Advanced Video Codec
Профиль формата : High@L4.1
Параметр CABAC формата : Да
Параметр ReFrames формата : 8 кадров
Идентификатор кодека : V_MPEG4/ISO/AVC
Продолжительность : 1 ч. 42 м.
Битрейт : 2415 Кбит/сек
Ширина : 1024 пикселя
Высота : 432 пикселя
Соотношение сторон : 2,40:1
Режим частоты кадров : Постоянный
Частота кадров : 24,000 кадра/сек
Цветовое пространство : YUV
Субдискретизация насыщенности : 4:2:0
Битовая глубина : 8 бит
Тип развёртки : Прогрессивная
Бит/(Пиксели*Кадры) : 0.227
Размер потока : 1,68 Гбайт (77%)
Библиотека кодирования : x264 core 115 r1937 aa21558
Настройки программы : cabac=1 / ref=8 / deblock=1:-3:-3 / analyse=0x3:0x113 / me=umh / subme=8 / psy=1 / psy_rd=1.00:0.10 / mixed_ref=0 / me_range=32 / chroma_me=1 / trellis=2 / 8x8dct=1 / cqm=0 / deadzone=21,11 / fast_pskip=1 / chroma_qp_offset=-3 / threads=6 / sliced_threads=0 / nr=0 / decimate=1 / interlaced=0 / bluray_compat=0 / constrained_intra=0 / bframes=8 / b_pyramid=2 / b_adapt=2 / b_bias=0 / direct=3 / weightb=1 / open_gop=0 / weightp=0 / keyint=240 / keyint_min=23 / scenecut=40 / intra_refresh=0 / rc_lookahead=30 / rc=2pass / mbtree=1 / bitrate=2415 / ratetol=1.0 / qcomp=0.60 / qpmin=15 / qpmax=47 / qpstep=3 / cplxblur=20.0 / qblur=0.5 / ip_ratio=1.40 / aq=1:1.10
Язык : English
Default : Да
Forced : Нет
Аудио #1
Идентификатор : 2
Формат : MPEG Audio
Версия формата : Version 1
Профиль формата : Layer 3
Режим : Joint stereo
Идентификатор кодека : A_MPEG/L3
Идентификатор кодека/Подсказка : MP3
Продолжительность : 1 ч. 42 м.
Вид битрейта : Постоянный
Битрейт : 192 Кбит/сек
Каналы : 2 канала
Частота : 48,0 КГц
Метод сжатия : С потерями
Размер потока : 140 Мбайт (6%)
Заголовок : Профессиональный многоголосый (НТВ+)
Язык : Russian
Default : Да
Forced : Нет
Аудио #2
Идентификатор : 3
Формат : AC-3
Формат/Информация : Audio Coding 3
Расширение режима : CM (complete main)
Параметр Endianness формата : Big
Идентификатор кодека : A_AC3
Продолжительность : 1 ч. 42 м.
Вид битрейта : Постоянный
Битрейт : 448 Кбит/сек
Каналы : 6 каналов
Расположение каналов : Front: L C R, Side: L R, LFE
Частота : 48,0 КГц
Битовая глубина : 16 бит
Метод сжатия : С потерями
Размер потока : 328 Мбайт (15%)
Заголовок : Оригинал (датский)
Язык : Danish
Default : Нет
Forced : Нет
Текст #1
Идентификатор : 4
Формат : UTF-8
Идентификатор кодека : S_TEXT/UTF8
Идентификатор кодека/Информация : UTF-8 Plain Text
Заголовок : Русские
Язык : Russian
Default : Да
Forced : Нет
Текст #2
Идентификатор : 5
Формат : UTF-8
Идентификатор кодека : S_TEXT/UTF8
Идентификатор кодека/Информация : UTF-8 Plain Text
Заголовок : Английские
Язык : English
Default : Нет
Forced : Нет
Меню
00:00:00.000 : en:00:00:00.000
00:09:14.250 : en:00:09:14.250
00:15:25.542 : en:00:15:25.542
00:24:20.625 : en:00:24:20.625
00:33:00.750 : en:00:33:00.750
00:42:22.708 : en:00:42:22.708
00:47:33.125 : en:00:47:33.125
00:57:22.417 : en:00:57:22.417
01:02:38.958 : en:01:02:38.958
01:10:18.792 : en:01:10:18.792
01:23:54.375 : en:01:23:54.375
01:39:10.000 : en:01:39:10.000

Дополнительная информация:

Первый датский художественный фильм режиссера Билле Аугуста за 25 лет.
Биргитте Йорт Серенсен была выбрана на главную роль режиссером Билле Аугустом, потому что она показалась ему похожей на персонаж из оригинальных картин Марии Крёйер.
Релиз от: Скриншоты:

[Цитировать]

Топик был перенесен из форума Новинки кинопроката в форум Драма
Henkok



Показать сообщения:    

Текущее время: 09-Дек 16:24

Часовой пояс: UTC + 3


Вы не можете начинать темы
Вы не можете отвечать на сообщения
Вы не можете редактировать свои сообщения
Вы не можете удалять свои сообщения
Вы не можете голосовать в опросах
Вы не можете прикреплять файлы к сообщениям
Вы не можете скачивать файлы

!ВНИМАНИЕ!
Сайт не предоставляет электронные версии произведений, а занимается лишь коллекционированием и каталогизацией ссылок, присылаемых и публикуемых на форуме нашими читателями. Если вы являетесь правообладателем какого-либо представленного материала и не желаете, чтобы ссылка на него находилась в нашем каталоге, свяжитесь с нами, и мы незамедлительно удалим ее. Файлы для обмена на трекере предоставлены пользователями сайта, и администрация не несет ответственности за их содержание. Просьба не заливать файлы, защищенные авторскими правами, а также файлы нелегального содержания!