[ Сегодня идет свободное скачивание без начисления Download ]


Статистика раздачи
Нет
 
   
 
Top  
 
 
ИЗ ПАРИЖА С ЛЮБОВЬЮ / From Paris with Love
«Two agents. One city. No merci.»
-Страна: Франция
Жанр: боевик, триллер, комедия, криминал
Год выпуска: 2010
Продолжительность: 01:32:39-Перевод: профессиональный (дублированный) лицензия
Субтитры: нет-Режиссёр: Пьер Морель / Pierre Morel-В ролях: Джон Траволта (Charlie Wax), Джонатан Риз Майерс (James Reece), Касия Смутняк (Caroline), Ричард Дерден (Ambassador Bennington), Бинг Йинг (M. Wong), Эмбер Роуз Рева (Nichole), Эрик Годон (Foreign Minister), Франсуа Бредон (The Thug), Чемс Дамани (Rashid), Сами Дарр (The Pimp), Джульен Хагнери (Chinese Punk), Мостефа Стити (Dir Yasin).-Описание:
Джеймсу можно позавидовать: должность личного помощника посла США во Франции, красавица-парижанка в качестве подружки, дорогие костюмы и непыльная работенка оперативника ЦРУ. Но мечтает он совсем о другом, о полной приключений жизни настоящего тайного агента, спасающего мир кулаками, выстрелами и едкими репликами. Судьба иронично улыбается Джеймсу. Он получает настоящее боевое задание в придачу с напарником-сорвиголовой Чарли Уэксом. Но вскоре он понимает, что быть супер агентом не так уж и здорово, как он представлял.
-6.4/10 (48234) 7.372 (32282)-Rip by ZNG505
Качество видео: BDRip (Исходник BDRemux 1080p)
Формат файла: AVI
Видео: XviD, 720x304 (2.35:1), 23.976 fps, 1791 kbps avg, 0.341 bit/pixel
Аудио: 48 kHz, AC3 Dolby Digital, 3/2 (L,C,R,l,r) + LFE ch, 448 kbps avg (Rus DUB)-

MediaInfo

Общее
Полное имя : D:\Torrent Rutracker\Iz.Pariga.s.lubovju.2010.DUB.XviD.AC3.BDRip._by.ZNG505_.avi
Формат : AVI
Формат/Информация : Audio Video Interleave
Размер файла : 1,46 Гбайт
Продолжительность : 1 ч. 32 м.
Общий поток : 2248 Кбит/сек
Программа кодирования : VirtualDubModRus 1.5.10.2 (build 2542/release)
Библиотека кодирования : VirtualDubMod build 2542/release
Видео
Идентификатор : 0
Формат : MPEG-4 Visual
Профиль формата : Advanced [email protected]
Параметр BVOP формата : 1
Параметр QPel формата : Нет
Параметр GMC формата : Без точки перехода
Параметр матрицы формата : Выборочная
Идентификатор кодека : XVID
Идентификатор кодека/Подсказка : XviD
Продолжительность : 1 ч. 32 м.
Битрейт : 1791 Кбит/сек
Ширина : 720 пикселей
Высота : 304 пикселя
Соотношение сторон : 2,35:1
Частота кадров : 23,976 кадра/сек
Цветовое пространство : YUV
Субдискретизация насыщенности : 4:2:0
Битовая глубина : 8 бит
Тип развёртки : Прогрессивная
Метод сжатия : С потерями
Бит/(Пиксели*Кадры) : 0.341
Размер потока : 1,16 Гбайт (80%)
Библиотека кодирования : XviD 64
Аудио
Идентификатор : 1
Формат : AC-3
Формат/Информация : Audio Coding 3
Расширение режима : CM (complete main)
Идентификатор кодека : 2000
Продолжительность : 1 ч. 32 м.
Вид битрейта : Постоянный
Битрейт : 448 Кбит/сек
Каналы : 6 каналов
Расположение каналов : Front: L C R, Side: L R, LFE
Частота : 48,0 КГц
Битовая глубина : 16 бит
Метод сжатия : С потерями
Размер потока : 297 Мбайт (20%)
Выравнивание : Разделение по промежуткам
Продолжительность промежутка : 42 мс. (1,00 видеокадр)
Время предзагрузки промежутка : 500 мс.

Скриншот c названием фильма

Скриншоты

[Цитировать]



Показать сообщения:    

Текущее время: 04-Дек 21:29

Часовой пояс: UTC + 3


Вы не можете начинать темы
Вы не можете отвечать на сообщения
Вы не можете редактировать свои сообщения
Вы не можете удалять свои сообщения
Вы не можете голосовать в опросах
Вы не можете прикреплять файлы к сообщениям
Вы не можете скачивать файлы

!ВНИМАНИЕ!
Сайт не предоставляет электронные версии произведений, а занимается лишь коллекционированием и каталогизацией ссылок, присылаемых и публикуемых на форуме нашими читателями. Если вы являетесь правообладателем какого-либо представленного материала и не желаете, чтобы ссылка на него находилась в нашем каталоге, свяжитесь с нами, и мы незамедлительно удалим ее. Файлы для обмена на трекере предоставлены пользователями сайта, и администрация не несет ответственности за их содержание. Просьба не заливать файлы, защищенные авторскими правами, а также файлы нелегального содержания!