[ Сегодня идет свободное скачивание без начисления Download ]


Статистика раздачи
Нет
 
   
 
Top  
 
 
В первый раз / The First Time«Когда-то секс бывает в первый раз» -Страна: США
Жанр: мелодрама, комедия
Год выпуска: 2012
Продолжительность: 01:35:08
Перевод: Профессиональный (дублированный) |Лицензия|
Cубтитры: нет-Режиссер: Джон Кэздан / Jon Kasdan-В ролях: Бриттани Робертсон, Дилан О’Брайэн, Джеймс Фрешвилл, Виктория Джастис, Крэйг Робертс, Мэгги Элизабет Джонс, Ламаркус Тинкер, Кристин Тейлор, Джошуа Малина, Хелстон Сейдж-Описание: Симпатяга Дэйв безнадежно и бесперспективно влюблен в первую школьную красавицу. Очаровательная Обри встречается с самодовольным мачо, который ей совершенно не подходит, но с которым она, зачем-то, решила лишиться девственности. И совсем неизвестно, как бы обернулись жизни двух этих замечательных молодых людей, если бы они случайно не столкнулись на вечеринке, которую разогнала полиция.
Обри и Дэйв становятся друзьями… нет вы не подумайте — только друзьями, которые могут поплакаться друг другу в жилетку и пожаловаться на превратности любви. Но однажды их нежная дружба начинает под воздействием сильного эротического электричества превращаться во что-то большее — захватывающее и волнующее. В то, что у каждого когда-то бывает в первый раз…и о чем потом, бывает, смешно вспоминать.- -Релиз от: -Автор рипа: Yarmak1988-Качество видео: DVDRip
Формат видео: AVI
Видео: 704x384 (1.85:1), 23.976 fps, XviD 65 ~1735 kbps avg, 0.268 bit/pixel
Аудио: 48 kHz, AC3 Dolby Digital, 3/2 (L,C,R,l,r) + LFE ch, 448.00 kbps Constant |Дубляж|
Скачать: Сэмпл-

MI

General
Complete name : V.pervyi.raz.2012.D.DVDRip.1.45GB_by_Yarmak23.avi
Format : AVI
Format/Info : Audio Video Interleave
File size : 1.46 GiB
Duration : 1h 35mn
Overall bit rate : 2 192 Kbps
Writing application : VirtualDubModRus 1.5.10.2 (build 2542/release)
Writing library : VirtualDubMod build 2542/release
Video
ID : 0
Format : MPEG-4 Visual
Format profile : Advanced [email protected]
Format settings, BVOP : 1
Format settings, QPel : No
Format settings, GMC : No warppoints
Format settings, Matrix : Custom
Codec ID : XVID
Codec ID/Hint : XviD
Duration : 1h 35mn
Bit rate : 1 735 Kbps
Width : 704 pixels
Height : 384 pixels
Display aspect ratio : 1.85:1
Frame rate : 23.976 fps
Color space : YUV
Chroma subsampling : 4:2:0
Bit depth : 8 bits
Scan type : Progressive
Compression mode : Lossy
Bits/(Pixel*Frame) : 0.268
Stream size : 1.15 GiB (79%)
Writing library : XviD 65
Audio
ID : 1
Format : AC-3
Format/Info : Audio Coding 3
Mode extension : CM (complete main)
Format settings, Endianness : Big
Codec ID : 2000
Duration : 1h 35mn
Bit rate mode : Constant
Bit rate : 448 Kbps
Channel(s) : 6 channels
Channel positions : Front: L C R, Side: L R, LFE
Sampling rate : 48.0 KHz
Bit depth : 16 bits
Compression mode : Lossy
Stream size : 305 MiB (20%)
Alignment : Split accross interleaves
Interleave, duration : 42 ms (1.00 video frame)
Interleave, preload duration : 500 ms

Скриншот c названием фильма

Скриншоты

- детям до 13 лет просмотр не желателен

[Цитировать]



Показать сообщения:    

Текущее время: 05-Дек 11:35

Часовой пояс: UTC + 3


Вы не можете начинать темы
Вы не можете отвечать на сообщения
Вы не можете редактировать свои сообщения
Вы не можете удалять свои сообщения
Вы не можете голосовать в опросах
Вы не можете прикреплять файлы к сообщениям
Вы не можете скачивать файлы

!ВНИМАНИЕ!
Сайт не предоставляет электронные версии произведений, а занимается лишь коллекционированием и каталогизацией ссылок, присылаемых и публикуемых на форуме нашими читателями. Если вы являетесь правообладателем какого-либо представленного материала и не желаете, чтобы ссылка на него находилась в нашем каталоге, свяжитесь с нами, и мы незамедлительно удалим ее. Файлы для обмена на трекере предоставлены пользователями сайта, и администрация не несет ответственности за их содержание. Просьба не заливать файлы, защищенные авторскими правами, а также файлы нелегального содержания!