[ Сегодня идет свободное скачивание без начисления Download ]


Статистика раздачи
Нет
 
   
 
Top  
 
 
Призрачный выпускной / Похождения призрака / Promocion fantasma -Страна: Испания
Жанр: фэнтези, комедия, приключения
Год выпуска: 2012
Продолжительность: 01:28:20
Перевод: Профессиональный (многоголосый закадровый) |THT|
Cубтитры: нет-Режиссер: Хавьер Риус / Javier Riuz-В ролях: Рауль Аревало, Александра Хименес, Хавьер Гонзалез, Анна Кастилло, Андреа Дуро, Аура Гарридо, Алекс Маруни, Хайме Олиас, Карлос Аресес, Сильвия Абрил-Описание: Обладающий паранормальными способностями заурядный учитель Модесто может видеть мертвых людей. Это не принесло ему никаких успехов в жизни, скорее наоборот, из-за этого его каждый раз увольняют с работы.
Однажды ему таки улыбается удача, и он устраивается работать в очень престижную элитную школу. Там его задачей становится обеспечить успешное окончание школы пяти трудным ученикам. Проблема лишь в том, что все они уже двадцать лет как мертвы, погибнув при охватившем школу пожаре. Для измученной пятеркой призраков директрисы школы единственной надеждой на долгожданное избавление от них становится неудачник Модесто.- -Релиз от: -Автор рипа: Yarmak1988-Качество видео: BDRip |исходник: BDRemux / 1080p|
Формат видео: AVI
Видео: 720x304 (2.35:1), 23.976 fps, XviD 65 ~2159 kbps avg, 0.411 bit/pixel
Аудио: 48 kHz, AC3 Dolby Digital, 2/0 (L,R) ch, 192.00 kbps Constant |Многоголосый закадровый, THT|
Скачать: Сэмпл-

MI

General
Complete name : Poxozhdenija.prizraka.2012.P.BDRip.1.45GB_by_Yarmak23.avi
Format : AVI
Format/Info : Audio Video Interleave
File size : 1.46 GiB
Duration : 1h 28mn
Overall bit rate : 2 360 Kbps
Writing application : VirtualDubMod 1.5.10.3 | www.virtualdub-fr.org || (build 2550/release)
Writing library : VirtualDubMod build 2550/release
Video
ID : 0
Format : MPEG-4 Visual
Format profile : Advanced [email protected]
Format settings, BVOP : 1
Format settings, QPel : No
Format settings, GMC : No warppoints
Format settings, Matrix : Custom
Codec ID : XVID
Codec ID/Hint : XviD
Duration : 1h 28mn
Bit rate : 2 159 Kbps
Width : 720 pixels
Height : 304 pixels
Display aspect ratio : 2.35:1
Frame rate : 23.976 fps
Color space : YUV
Chroma subsampling : 4:2:0
Bit depth : 8 bits
Scan type : Progressive
Compression mode : Lossy
Bits/(Pixel*Frame) : 0.411
Stream size : 1.33 GiB (91%)
Writing library : XviD 65
Audio
ID : 1
Format : AC-3
Format/Info : Audio Coding 3
Mode extension : CM (complete main)
Format settings, Endianness : Big
Codec ID : 2000
Duration : 1h 28mn
Bit rate mode : Constant
Bit rate : 192 Kbps
Channel(s) : 2 channels
Channel positions : Front: L R
Sampling rate : 48.0 KHz
Bit depth : 16 bits
Compression mode : Lossy
Stream size : 121 MiB (8%)
Alignment : Split accross interleaves
Interleave, duration : 42 ms (1.00 video frame)
Interleave, preload duration : 500 ms

Скриншот c названием фильма

Скриншоты

Торрент перезалит 05.03.2013, сделал свой рип, лучший по качеству, перезакачайте торрент.

[Цитировать]



Показать сообщения:    

Текущее время: 06-Дек 20:59

Часовой пояс: UTC + 3


Вы не можете начинать темы
Вы не можете отвечать на сообщения
Вы не можете редактировать свои сообщения
Вы не можете удалять свои сообщения
Вы не можете голосовать в опросах
Вы не можете прикреплять файлы к сообщениям
Вы не можете скачивать файлы

!ВНИМАНИЕ!
Сайт не предоставляет электронные версии произведений, а занимается лишь коллекционированием и каталогизацией ссылок, присылаемых и публикуемых на форуме нашими читателями. Если вы являетесь правообладателем какого-либо представленного материала и не желаете, чтобы ссылка на него находилась в нашем каталоге, свяжитесь с нами, и мы незамедлительно удалим ее. Файлы для обмена на трекере предоставлены пользователями сайта, и администрация не несет ответственности за их содержание. Просьба не заливать файлы, защищенные авторскими правами, а также файлы нелегального содержания!