[ Today is free to download without increasing Download ]

DL-List and Torrent activity
Магазин самоубийств / Le magasin des suicides -Страна: Франция, Канада, Бельгия
Жанр: мультфильм, мюзикл, комедия
Год выпуска: 2012
Продолжительность: 01:19:06
Перевод: Профессиональный (многоголосый закадровый)
Cубтитры: русские (только на песни - спасибо MountainFOX) (*.srt, отдельным файлом)-Режиссер: Патрис Леконт / Patrice Leconte-В ролях: Бернар Алан, Изабель Спад, Кейси Моттет Кляйн, Изабель Джани, Лоран Жандрон, Пьер-Франсуа Мартен-Лаваль, Эрик Метайе, Жак Мату, Юрбен Канселье, Паскаль Парментье-Описание: В неком городе, где жизнь невероятно уныла и невыносима, на протяжении многих поколений процветает магазин, который торгует всем необходимым для совершения самоубийств. Всё идёт замечательно до тех пор, пока в семье владельца этого магазина не рождается Алан — жизнелюбивый и весёлый малыш.- -Релиз от: -Автор рипа: Yarmak1988-Качество видео: HDRip |исходник: BDRip 720p|
Формат видео: AVI
Видео: 720x400 (16:9), 24.000 fps, XviD 65 ~2 179 kbps avg, 0.315 bit/pixel
Аудио: 48 kHz, AC3 Dolby Digital, 3/2 (L,C,R,l,r) + LFE ch, 448.00 kbps Constant |Многоголосый закадровый|
Скачать: Сэмпл-


Complete name : Le.magasin.des.suicides.2012.P.HDRip.1.45GB_by_Yarmak23.avi
Format : AVI
Format/Info : Audio Video Interleave
File size : 1.46 GiB
Duration : 1h 19mn
Overall bit rate : 2 636 Kbps
Writing application : VirtualDubMod | www.virtualdub-fr.org || (build 2550/release)
Writing library : VirtualDubMod build 2550/release
ID : 0
Format : MPEG-4 Visual
Format profile : Advanced Simple@L5
Format settings, BVOP : 1
Format settings, QPel : No
Format settings, GMC : No warppoints
Format settings, Matrix : Custom
Codec ID : XVID
Codec ID/Hint : XviD
Duration : 1h 19mn
Bit rate : 2 179 Kbps
Width : 720 pixels
Height : 400 pixels
Display aspect ratio : 16:9
Frame rate : 24.000 fps
Color space : YUV
Chroma subsampling : 4:2:0
Bit depth : 8 bits
Scan type : Progressive
Compression mode : Lossy
Bits/(Pixel*Frame) : 0.315
Stream size : 1.20 GiB (83%)
Writing library : XviD 65
ID : 1
Format : AC-3
Format/Info : Audio Coding 3
Mode extension : CM (complete main)
Format settings, Endianness : Big
Codec ID : 2000
Duration : 1h 19mn
Bit rate mode : Constant
Bit rate : 448 Kbps
Channel(s) : 6 channels
Channel positions : Front: L C R, Side: L R, LFE
Sampling rate : 48.0 KHz
Bit depth : 16 bits
Compression mode : Lossy
Stream size : 253 MiB (17%)
Alignment : Split accross interleaves
Interleave, duration : 42 ms (1.00 video frame)
Interleave, preload duration : 500 ms

Скриншот c названием фильма


Зрителям, достигшим 16 лет


Display posts:    

Current time is: 26-Oct 08:49

All times are UTC + 3

You cannot post new topics in this forum
You cannot reply to topics in this forum
You cannot edit your posts in this forum
You cannot delete your posts in this forum
You cannot vote in polls in this forum
You cannot attach files in this forum
You cannot download files in this forum

The site does not give electronic versions of products, and is engaged only in a collecting and cataloguing of the references sent and published at a forum by our readers. If you are the legal owner of any submitted material and do not wish that the reference to it was in our catalogue, contact us and we shall immediately remove her. Files for an exchange on tracker are given by users of a site, and the administration does not bear the responsibility for their maintenance. The request to not fill in the files protected by copyrights, and also files of the illegal maintenance!