[ Today is free to download without increasing Download ]

DL-List and Torrent activity
Крученый мяч / Trouble with the Curve«Whatever Life Throws at You» -Страна: США
Жанр: драма
Год выпуска: 2012
Продолжительность: 01:51:12
Перевод: Профессиональный (многоголосый закадровый) |Лицензия|
Cубтитры: нет-Режиссер: Роберт Лоренц / Robert Lorenz-В ролях: Клинт Иствуд, Джастин Тимберлэйк, Эми Адамс, Джон Гудмен, Боб Гантон, Мэттью Лиллард, Роберт Патрик, Челси Росс, Джордж Уайнер, Эд Лотер-Описание: История пожилого бейсбольного скаута. Герой постепенно теряет зрение и вместе с дочерью в последний раз отправляется на поиски будущих звезд бейсбола.- -Релиз от: -Автор рипа: Yarmak1988-Качество видео: BDRip |исходник: / Blu-ray / 1080p|
Формат видео: AVI
Видео: 656x272 (2.40:1), 23.976 fps, XviD 65 ~800 kbps avg, 0.187 bit/pixel
Аудио: 48 kHz, MPEG Layer 3, 2 ch, 128.00 kbps Constant |Многоголосый закадровый|
Скачать: Сэмпл-


Complete name : Kruchenyy.myach.2012.P.BDRip.745MB_by_Yarmak23.avi
Format : AVI
Format/Info : Audio Video Interleave
File size : 746 MiB
Duration : 1h 51mn
Overall bit rate : 937 Kbps
Writing application : VirtualDubMod (build 2540/release)
Writing library : VirtualDubMod build 2540/release
ID : 0
Format : MPEG-4 Visual
Format profile : Advanced Simple@L5
Format settings, BVOP : 1
Format settings, QPel : No
Format settings, GMC : No warppoints
Format settings, Matrix : Custom
Codec ID : XVID
Codec ID/Hint : XviD
Duration : 1h 51mn
Bit rate : 800 Kbps
Width : 656 pixels
Height : 272 pixels
Display aspect ratio : 2.40:1
Frame rate : 23.976 fps
Color space : YUV
Chroma subsampling : 4:2:0
Bit depth : 8 bits
Scan type : Progressive
Compression mode : Lossy
Bits/(Pixel*Frame) : 0.187
Stream size : 636 MiB (85%)
Writing library : XviD 65
ID : 1
Format : MPEG Audio
Format version : Version 1
Format profile : Layer 3
Codec ID : 55
Codec ID/Hint : MP3
Duration : 1h 51mn
Bit rate mode : Constant
Bit rate : 128 Kbps
Channel(s) : 2 channels
Sampling rate : 48.0 KHz
Compression mode : Lossy
Stream size : 102 MiB (14%)
Alignment : Aligned on interleaves
Interleave, duration : 42 ms (1.00 video frame)
Interleave, preload duration : 504 ms
Writing library : LAME3.97
Encoding settings : -m s -V 4 -q 2 -lowpass 17 -b 128

Скриншот c названием фильма


- детям до 13 лет просмотр не желателен


Display posts:    

Current time is: 26-Oct 20:15

All times are UTC + 3

You cannot post new topics in this forum
You cannot reply to topics in this forum
You cannot edit your posts in this forum
You cannot delete your posts in this forum
You cannot vote in polls in this forum
You cannot attach files in this forum
You cannot download files in this forum

The site does not give electronic versions of products, and is engaged only in a collecting and cataloguing of the references sent and published at a forum by our readers. If you are the legal owner of any submitted material and do not wish that the reference to it was in our catalogue, contact us and we shall immediately remove her. Files for an exchange on tracker are given by users of a site, and the administration does not bear the responsibility for their maintenance. The request to not fill in the files protected by copyrights, and also files of the illegal maintenance!