[ Сегодня идет свободное скачивание без начисления Download ]


Статистика раздачи
Нет
 
   
 
Top  
 
 
С Новым годом, мамы!«Праздничное кино» -Страна: Россия
Жанр: лирическая комедия
Год выпуска: 2012
Продолжительность: 01:24:20-Режиссеры: Артём Аксёненко, Дмитрий Грачёв, Клим Поплавский, Антон Борматов, Сарик Андреасян-В ролях: Екатерина Вилкова, Светлана Иванова, Луиза-Габриэла Бровина, Евгения Каверау, Татьяна Васильева, Виктор Васильев, Екатерина Климова, Ксения Попович, Елизавета Боярская, Роман Зенчук, Максим Матвеев, Ирина Розанова, Павел Воля, Валентина Рубцова, Максим Виторган, Константин Крюков, Андрей Заводюк, Агния Дитковските, Гарик Харламов, Станислав Садальский, Алексей Гришин, Раиса Рязанова, Ольга Сутулова, Илья Ловкий, Даниил Филенко, Анна Банщикова, Карэн Бадалов, Ален Делон, Александр Сазонов, Дима Прокудин, Федор Волков, Ирина Колодяжная, Глеб Сердюков, Полина Уварова, Лера Стреляева, Вячеслав Щенин, Александр Миронов, Петар Зекавица, Сергей Серов, Татьяна Насташевская, Юлия Назаренко, Александр Алексеев-Описание: В новой ленте зрители увидят новые истории и новые приключения новых героев, объединенных одним чувством — любовью к МАМЕ. Пять новелл. Смешные и трогательные, лиричные и комичные — каждая новелла расскажет историю мамы и ребенка, двух самых близких людей на свете. Ведь что бы ни происходило, мама всегда остается тем человеком, который будет любить всегда и несмотря ни на что…- -Релиз от: -Автор рипа: Yarmak1988-Качество видео: BDRip |исходник: Blu-ray Disc|
Формат видео: AVI
Видео: 640x272 (2.35:1), 24 fps, XviD 65 ~1098 kbps avg, 0.263 bit/pixel
Аудио : 48 kHz, MPEG Layer 3, 2 ch, 128.00 kbps, CBR
Скачать: Семпл-

MI

General
Complete name : S.novym.godom.mamy.2012.O.BDRip.745MB_by_Yarmak23.avi
Format : AVI
Format/Info : Audio Video Interleave
File size : 745 MiB
Duration : 1h 24mn
Overall bit rate : 1 235 Kbps
Writing application : VirtualDubMod 1.5.10.2 (build 2540/release)
Writing library : VirtualDubMod build 2540/release
Video
ID : 0
Format : MPEG-4 Visual
Format profile : Advanced Simple@L5
Format settings, BVOP : 1
Format settings, QPel : No
Format settings, GMC : No warppoints
Format settings, Matrix : Custom
Codec ID : XVID
Codec ID/Hint : XviD
Duration : 1h 24mn
Bit rate : 1 098 Kbps
Width : 640 pixels
Height : 272 pixels
Display aspect ratio : 2.35:1
Frame rate : 24.000 fps
Color space : YUV
Chroma subsampling : 4:2:0
Bit depth : 8 bits
Scan type : Progressive
Compression mode : Lossy
Bits/(Pixel*Frame) : 0.263
Stream size : 662 MiB (89%)
Writing library : XviD 65
Audio
ID : 1
Format : MPEG Audio
Format version : Version 1
Format profile : Layer 3
Mode : Joint stereo
Mode extension : MS Stereo
Codec ID : 55
Codec ID/Hint : MP3
Duration : 1h 24mn
Bit rate mode : Constant
Bit rate : 128 Kbps
Channel(s) : 2 channels
Sampling rate : 48.0 KHz
Compression mode : Lossy
Stream size : 77.2 MiB (10%)
Alignment : Aligned on interleaves
Interleave, duration : 42 ms (1.00 video frame)
Interleave, preload duration : 504 ms

Скриншот c названием фильма

Скриншоты

[Цитировать]



Показать сообщения:    

Текущее время: 09-Дек 16:38

Часовой пояс: UTC + 3


Вы не можете начинать темы
Вы не можете отвечать на сообщения
Вы не можете редактировать свои сообщения
Вы не можете удалять свои сообщения
Вы не можете голосовать в опросах
Вы не можете прикреплять файлы к сообщениям
Вы не можете скачивать файлы

!ВНИМАНИЕ!
Сайт не предоставляет электронные версии произведений, а занимается лишь коллекционированием и каталогизацией ссылок, присылаемых и публикуемых на форуме нашими читателями. Если вы являетесь правообладателем какого-либо представленного материала и не желаете, чтобы ссылка на него находилась в нашем каталоге, свяжитесь с нами, и мы незамедлительно удалим ее. Файлы для обмена на трекере предоставлены пользователями сайта, и администрация не несет ответственности за их содержание. Просьба не заливать файлы, защищенные авторскими правами, а также файлы нелегального содержания!