[ Сегодня идет свободное скачивание без начисления Download ]


Статистика раздачи
Нет
 
   
 
Top  
 
 
Кинси / Доктор Кинси / Kinsey
«Let's talk about sex.»
*
Страна: США, Германия
Жанр: драма, биография
Год выпуска: 2004
Продолжительность: 01:53:37
Перевод: Профессиональный (многоголосый закадровый) |Лицензия|
Cубтитры: нет-Режиссер: Билл Кондон / Bill Condon-В ролях: Лиам Нисон, Лора Линни, Крис О’Доннелл, Питер Сарсгаард, Тимоти Хаттон, Джон Литгоу, Тим Карри, Оливер Плэтт, Дилан Бейкер, Джулианна Николсон...-Описание: Фильм основан на реальных событиях. В 1953 году врач-сексопатолог Альфред Кинси исследует сексуальную жизнь и сексуальные фантазии миллионов американцев. Откровения многих опрошенных вызывают удивление у всей нации: многие из них занимались сексом до свадьбы, с большим количеством партнеров, с различными предметами.
Средства массовой информации, а вместе с ними и католическая церковь представили исследования Кинси в дурном свете, они выдали бескомпромиссное утверждение, что все американки занимаются сексом только со своими мужьями. Скандал достигает своего апогея тогда, когда Кинси внедряет результаты своих исследований в лечебную практику…- -Релиз от: -Автор рипа: Yarmak1988-Качество видео: DVDRip
Формат видео: AVI
Видео: 640x272 (2.35:1), 25.000 fps, XviD 65 ~779 kbps avg, 0.179 bit/pixel
Аудио: 48 kHz, MPEG Layer 3, 2 ch, 128.00 kbps Constant |Многоголосый закадровый|
Скачать: Сэмпл-

MI

General
Complete name : Doktor.Kinsi.2004.P.DVDRip.745MB_by_Yarmak.avi
Format : AVI
Format/Info : Audio Video Interleave
File size : 745 MiB
Duration : 1h 53mn
Overall bit rate : 917 Kbps
Writing application : VirtualDubMod 1.5.10.2 (build 2540/release)
Writing library : VirtualDubMod build 2540/release
Video
ID : 0
Format : MPEG-4 Visual
Format profile : Advanced [email protected]
Format settings, BVOP : 1
Format settings, QPel : No
Format settings, GMC : No warppoints
Format settings, Matrix : Custom
Codec ID : XVID
Codec ID/Hint : XviD
Duration : 1h 53mn
Bit rate : 779 Kbps
Width : 640 pixels
Height : 272 pixels
Display aspect ratio : 2.35:1
Frame rate : 25.000 fps
Color space : YUV
Chroma subsampling : 4:2:0
Bit depth : 8 bits
Scan type : Progressive
Compression mode : Lossy
Bits/(Pixel*Frame) : 0.179
Stream size : 633 MiB (85%)
Writing library : XviD 65
Audio
ID : 1
Format : MPEG Audio
Format version : Version 1
Format profile : Layer 3
Mode : Joint stereo
Mode extension : MS Stereo
Codec ID : 55
Codec ID/Hint : MP3
Duration : 1h 53mn
Bit rate mode : Constant
Bit rate : 128 Kbps
Channel(s) : 2 channels
Sampling rate : 48.0 KHz
Compression mode : Lossy
Stream size : 104 MiB (14%)
Alignment : Aligned on interleaves
Interleave, duration : 40 ms (1.00 video frame)
Interleave, preload duration : 504 ms

Скриншоты


-

Награды и номинации*

- лицам до 17 лет обязательно присутствие взрослого

[Цитировать]



Показать сообщения:    

Текущее время: 04-Дек 11:13

Часовой пояс: UTC + 3


Вы не можете начинать темы
Вы не можете отвечать на сообщения
Вы не можете редактировать свои сообщения
Вы не можете удалять свои сообщения
Вы не можете голосовать в опросах
Вы не можете прикреплять файлы к сообщениям
Вы не можете скачивать файлы

!ВНИМАНИЕ!
Сайт не предоставляет электронные версии произведений, а занимается лишь коллекционированием и каталогизацией ссылок, присылаемых и публикуемых на форуме нашими читателями. Если вы являетесь правообладателем какого-либо представленного материала и не желаете, чтобы ссылка на него находилась в нашем каталоге, свяжитесь с нами, и мы незамедлительно удалим ее. Файлы для обмена на трекере предоставлены пользователями сайта, и администрация не несет ответственности за их содержание. Просьба не заливать файлы, защищенные авторскими правами, а также файлы нелегального содержания!