[ Сегодня идет свободное скачивание без начисления Download ]


Статистика раздачи
Нет
 
   
 
Top  
 
 
Доктор Джекилл и мистер Хайд / Dr. Jekyll and Mr. Hyde -Страна: Австралия
Жанр: мультфильм, ужасы
Год выпуска: 1986
Продолжительность: 50:54
Перевод: Профессиональный (многоголосый закадровый)
Cубтитры: нет-Режиссер: Уорвик Гилберт / Warwick Gilbert-В ролях: Кэрол Адамс, Семен Хоукинс, Филлип Хинтон, Эндрю Инглис, Джилл МакКэй-Описание: Эта история Роберта Льюиса Стивенсона о выдающемся, добром докторе, который в Лондоне в 19 веке проводит эксперименты с неизвестным зельем.
Из-за этого зелья доктор превращается в злого, страшного и кровожадного карлика, который наводит ужас на людей. Добро и зло сражаются за его тело и душу. Это классический пример того, как во все времена плохие снадобья ничего, кроме зла, не приносили.- -Релиз от: -Автор рипа: Yarmak1988-Качество видео: DVDRip
Формат видео: AVI
Видео: 688x528 (4:3), 25.000 fps, XviD 65 ~1844 kbps avg, 0.203 bit/pixel
Аудио: 48 kHz, AC3 Dolby Digital, 2/0 (L,R) ch, ~192.00 kbps Constant |Многоголосый закадровый|
Скачать: Сэмпл-

MI

General
Complete name : Doctor_Dzhekil_I_Mister_Xayd_1986_P_DVDRip_745_by_Yarmak.avi
Format : AVI
Format/Info : Audio Video Interleave
File size : 745 MiB
Duration : 50mn 53s
Overall bit rate : 2 046 Kbps
Writing application : VirtualDubMod 1.5.10.3 | www.virtualdub-fr.org || (build 2550/release)
Writing library : VirtualDubMod build 2550/release
Video
ID : 0
Format : MPEG-4 Visual
Format profile : Advanced Simple@L5
Format settings, BVOP : 1
Format settings, QPel : No
Format settings, GMC : No warppoints
Format settings, Matrix : Custom
Codec ID : XVID
Codec ID/Hint : XviD
Duration : 50mn 53s
Bit rate : 1 844 Kbps
Width : 688 pixels
Height : 528 pixels
Display aspect ratio : 4:3
Frame rate : 25.000 fps
Color space : YUV
Chroma subsampling : 4:2:0
Bit depth : 8 bits
Scan type : Progressive
Compression mode : Lossy
Bits/(Pixel*Frame) : 0.203
Stream size : 671 MiB (90%)
Writing library : XviD 65
Audio
ID : 1
Format : AC-3
Format/Info : Audio Coding 3
Mode extension : CM (complete main)
Format settings, Endianness : Big
Codec ID : 2000
Duration : 50mn 53s
Bit rate mode : Constant
Bit rate : 192 Kbps
Channel(s) : 2 channels
Channel positions : Front: L R
Sampling rate : 48.0 KHz
Bit depth : 16 bits
Compression mode : Lossy
Stream size : 69.9 MiB (9%)
Alignment : Split accross interleaves
Interleave, duration : 40 ms (1.00 video frame)
Interleave, preload duration : 500 ms

Скриншоты

[Цитировать]



Показать сообщения:    

Текущее время: 24-Мар 21:53

Часовой пояс: UTC + 6


Вы не можете начинать темы
Вы не можете отвечать на сообщения
Вы не можете редактировать свои сообщения
Вы не можете удалять свои сообщения
Вы не можете голосовать в опросах
Вы не можете прикреплять файлы к сообщениям
Вы не можете скачивать файлы

!ВНИМАНИЕ!
Сайт не предоставляет электронные версии произведений, а занимается лишь коллекционированием и каталогизацией ссылок, присылаемых и публикуемых на форуме нашими читателями. Если вы являетесь правообладателем какого-либо представленного материала и не желаете, чтобы ссылка на него находилась в нашем каталоге, свяжитесь с нами, и мы незамедлительно удалим ее. Файлы для обмена на трекере предоставлены пользователями сайта, и администрация не несет ответственности за их содержание. Просьба не заливать файлы, защищенные авторскими правами, а также файлы нелегального содержания!