[ Today is free to download without increasing Download ]

DL-List and Torrent activity
Кого хочу я больше / Come Undone / Cosa voglio di piu -Страна: Италия, Швейцария
Жанр: драма
Год выпуска: 2010
Продолжительность: 02:04:25
Перевод: Профессиональный (многоголосый закадровый) |Лицензия|
Cубтитры: нет-Режиссер: Сильвио Сольдини / Silvio Soldini-В ролях: Альба Рорвакер, Пьерфранческо Фавино, Тереза Сапонанджело, Джузеппе Баттистон, Фабио Тройяно, Моника Нэппо, Татьяна Лепоре, Серджо Солли, Джизелла Буринато, Джиджио Алберти-Описание: У Анны есть все для счастья: красивый дом, успешная работа и любимый человек. Но неожиданно у нее начинается роман с официантом Домиником. Оказывается, между ее рассуждениями о любви и настоящей страстью не было ничего общего! Ее невозможно планировать, ею нельзя управлять…- -Релиз от: -Автор рипа: Yarmak1988-Качество видео: BDRip |Рип с BDRemux 1080p|
Формат видео: AVI
Видео: 640x272 (2.35:1), 24.000 fps, XviD 65 ~700 Kbps, 0.167 bit/pixel
Аудио: 48 kHz, MPEG Layer 3, 2 ch, ~128.00 kbps Constant |Многоголосый закадровый|
Скачать: Сэмпл-


Complete name : Kogo_hochu_ya_bolshe_2010_P_BDRip_745_by_Yarmak23.avi
Format : AVI
Format/Info : Audio Video Interleave
File size : 745 MiB
Duration : 2h 4mn
Overall bit rate : 837 Kbps
Writing application : VirtualDubMod (build 2540/release)
Writing library : VirtualDubMod build 2540/release
ID : 0
Format : MPEG-4 Visual
Format profile : Advanced Simple@L5
Format settings, BVOP : 1
Format settings, QPel : No
Format settings, GMC : No warppoints
Format settings, Matrix : Custom
Codec ID : XVID
Codec ID/Hint : XviD
Duration : 2h 4mn
Bit rate : 700 Kbps
Width : 640 pixels
Height : 272 pixels
Display aspect ratio : 2.35:1
Frame rate : 24.000 fps
Color space : YUV
Chroma subsampling : 4:2:0
Bit depth : 8 bits
Scan type : Progressive
Compression mode : Lossy
Bits/(Pixel*Frame) : 0.167
Stream size : 623 MiB (84%)
Writing library : XviD 65
ID : 1
Format : MPEG Audio
Format version : Version 1
Format profile : Layer 3
Mode : Joint stereo
Codec ID : 55
Codec ID/Hint : MP3
Duration : 2h 4mn
Bit rate mode : Constant
Bit rate : 128 Kbps
Channel(s) : 2 channels
Sampling rate : 48.0 KHz
Compression mode : Lossy
Stream size : 114 MiB (15%)
Alignment : Aligned on interleaves
Interleave, duration : 42 ms (1.00 video frame)
Interleave, preload duration : 504 ms

Скриншот c названием фильма


Зрителям, достигшим 16 лет


Display posts:    

Current time is: 23-Oct 09:07

All times are UTC + 3

You cannot post new topics in this forum
You cannot reply to topics in this forum
You cannot edit your posts in this forum
You cannot delete your posts in this forum
You cannot vote in polls in this forum
You cannot attach files in this forum
You cannot download files in this forum

The site does not give electronic versions of products, and is engaged only in a collecting and cataloguing of the references sent and published at a forum by our readers. If you are the legal owner of any submitted material and do not wish that the reference to it was in our catalogue, contact us and we shall immediately remove her. Files for an exchange on tracker are given by users of a site, and the administration does not bear the responsibility for their maintenance. The request to not fill in the files protected by copyrights, and also files of the illegal maintenance!