[ Сегодня идет свободное скачивание без начисления Download ]


Статистика раздачи
Нет
 
   
 
Top  
 
 
Кого хочу я больше / Come Undone / Cosa voglio di piu -Страна: Италия, Швейцария
Жанр: драма
Год выпуска: 2010
Продолжительность: 02:04:25
Перевод: Профессиональный (многоголосый закадровый) |Лицензия|
Cубтитры: нет-Режиссер: Сильвио Сольдини / Silvio Soldini-В ролях: Альба Рорвакер, Пьерфранческо Фавино, Тереза Сапонанджело, Джузеппе Баттистон, Фабио Тройяно, Моника Нэппо, Татьяна Лепоре, Серджо Солли, Джизелла Буринато, Джиджио Алберти-Описание: У Анны есть все для счастья: красивый дом, успешная работа и любимый человек. Но неожиданно у нее начинается роман с официантом Домиником. Оказывается, между ее рассуждениями о любви и настоящей страстью не было ничего общего! Ее невозможно планировать, ею нельзя управлять…- -Релиз от: -Автор рипа: Yarmak1988-Качество видео: BDRip |Рип с BDRemux 1080p|
Формат видео: AVI
Видео: 640x272 (2.35:1), 24.000 fps, XviD 65 ~700 Kbps, 0.167 bit/pixel
Аудио: 48 kHz, MPEG Layer 3, 2 ch, ~128.00 kbps Constant |Многоголосый закадровый|
Скачать: Сэмпл-

MI

General
Complete name : Kogo_hochu_ya_bolshe_2010_P_BDRip_745_by_Yarmak23.avi
Format : AVI
Format/Info : Audio Video Interleave
File size : 745 MiB
Duration : 2h 4mn
Overall bit rate : 837 Kbps
Writing application : VirtualDubMod 1.5.10.2 (build 2540/release)
Writing library : VirtualDubMod build 2540/release
Video
ID : 0
Format : MPEG-4 Visual
Format profile : Advanced Simple@L5
Format settings, BVOP : 1
Format settings, QPel : No
Format settings, GMC : No warppoints
Format settings, Matrix : Custom
Codec ID : XVID
Codec ID/Hint : XviD
Duration : 2h 4mn
Bit rate : 700 Kbps
Width : 640 pixels
Height : 272 pixels
Display aspect ratio : 2.35:1
Frame rate : 24.000 fps
Color space : YUV
Chroma subsampling : 4:2:0
Bit depth : 8 bits
Scan type : Progressive
Compression mode : Lossy
Bits/(Pixel*Frame) : 0.167
Stream size : 623 MiB (84%)
Writing library : XviD 65
Audio
ID : 1
Format : MPEG Audio
Format version : Version 1
Format profile : Layer 3
Mode : Joint stereo
Codec ID : 55
Codec ID/Hint : MP3
Duration : 2h 4mn
Bit rate mode : Constant
Bit rate : 128 Kbps
Channel(s) : 2 channels
Sampling rate : 48.0 KHz
Compression mode : Lossy
Stream size : 114 MiB (15%)
Alignment : Aligned on interleaves
Interleave, duration : 42 ms (1.00 video frame)
Interleave, preload duration : 504 ms

Скриншот c названием фильма

Скриншоты


Зрителям, достигшим 16 лет

[Цитировать]



Показать сообщения:    

Текущее время: 08-Дек 09:00

Часовой пояс: UTC + 3


Вы не можете начинать темы
Вы не можете отвечать на сообщения
Вы не можете редактировать свои сообщения
Вы не можете удалять свои сообщения
Вы не можете голосовать в опросах
Вы не можете прикреплять файлы к сообщениям
Вы не можете скачивать файлы

!ВНИМАНИЕ!
Сайт не предоставляет электронные версии произведений, а занимается лишь коллекционированием и каталогизацией ссылок, присылаемых и публикуемых на форуме нашими читателями. Если вы являетесь правообладателем какого-либо представленного материала и не желаете, чтобы ссылка на него находилась в нашем каталоге, свяжитесь с нами, и мы незамедлительно удалим ее. Файлы для обмена на трекере предоставлены пользователями сайта, и администрация не несет ответственности за их содержание. Просьба не заливать файлы, защищенные авторскими правами, а также файлы нелегального содержания!