[ Сегодня идет свободное скачивание без начисления Download ]


Статистика раздачи
Нет
 
   
 
 
 
-Охота / Jagten (2012) BDRip-
Русское название: Охота
Оригинальное название: Jagten
Год выпуска: 2012
Производство: Дания, Film i V?st, Zentropa Entertainments
Жанр: Психологическая драма--Описание фильма:
После мучительного развода 40-летний Лукас находит новую подругу, новую работу и стремится восстановить отношения со своим сыном-подростком Маркусом. Но ему что-то мешает… Что-то, казалось бы, незначительное. Замечание, сделанное между прочим. Мелкая ложь. И вот накануне Рождества, когда падает снег и зажигаются огни на елке, ложь разрастается и проникает повсюду, как невидимый вирус. Растет недоверие, и все вокруг оказываются в состоянии коллективной истерии. Лукас вынужден бороться за свою жизнь и достоинство.--Режиссер: Томас Винтерберг
Актеры: Мадс Миккельсен, Томас Бо Ларсен, Анника Веддеркопп, Лассе Фогельстрём, Суссе Уолд, Анне Луизе Хассинг, Ларс Ранте, Александра Рапапорт, Оле Дюпон, Рикке Бергманн...
Продолжительность: 01:55:28
Перевод: Профессиональный (многоголосый закадровый)
Язык субтитров: Французский
Вид субтитров: Вшитые отключаемые- -Дата мировой премьеры: 20 мая 2012
Дата российской премьеры: 21 февраля 2013, «Русский репортаж»
Дата выхода DVD релиза: 1 апреля 2013, «Новый Диск»-Видеокодек: MPEG-4 AVC/H.264
Битрейт видео: ~9162 Кбит/сек
Размер кадра: 1920x816
Качество видео: BDRip 1080p
Аудиокодек: AC3 , DTS
Аудио #1: Русский ( AC3 / 2.0 / 48 kHz / 256 kbps ) - Профессиональный (многоголосый)
Аудио #2: Датский ( DTS / 5.1 / 48 kHz / 1510 kbps )
-

Награды и номинации


Британская академия, 2013 год
Номинации (1):
Лучший фильм на иностранном языке


Каннский кинофестиваль, 2012 год
Победитель (1):
Серебряная премия за лучшую мужскую роль (Мадс Миккельсен)
Номинации (1):
Золотая пальмовая ветвь


Европейская киноакадемия, 2012 год
Победитель (1):
Лучшая работа сценариста (Томас Винтерберг, Тобиас Линдхольм)
Номинации (4):
Лучший фильм
Лучшая мужская роль (Мадс Миккельсен)
Лучший режиссер (Томас Винтерберг)
Лучший монтаж
-

MediaInfo

Общее
Уникальный идентификатор : 207344610200979767186359599017030613803 (0x9BFD1E8E555F31CA94D6ABA4AAB87B2B)
Полное имя : Охота _ Jagten (2012) BDRip.1080p..mkv
Формат : Matroska
Версия формата : Version 4 / Version 2
Размер файла : 8,81 Гбайт
Продолжительность : 1 ч. 55 м.
Общий поток : 10,9 Мбит/сек
Дата кодирования : UTC 2013-03-20 18:07:14
Программа кодирования : mkvmerge v6.1.0 ('Old Devil') built on Mar 2 2013 14:32:37
Библиотека кодирования : libebml v1.3.0 + libmatroska v1.4.0
Видео
Идентификатор : 1
Формат : AVC
Формат/Информация : Advanced Video Codec
Профиль формата : [email protected]
Параметр CABAC формата : Да
Параметр ReFrames формата : 5 кадров
Идентификатор кодека : V_MPEG4/ISO/AVC
Продолжительность : 1 ч. 55 м.
Битрейт : 9162 Кбит/сек
Ширина : 1920 пикселей
Высота : 816 пикселей
Соотношение сторон : 2,35:1
Режим частоты кадров : Постоянный
Частота кадров : 25,000 кадров/сек
Частота кадров в оригинале : 24,000 кадра/сек
Цветовое пространство : YUV
Субдискретизация насыщенности : 4:2:0
Битовая глубина : 8 бит
Тип развёртки : Прогрессивная
Бит/(Пиксели*Кадры) : 0.234
Размер потока : 7,21 Гбайт (82%)
Заголовок : CMBHD - La chasse 2012 - 1080p
Библиотека кодирования : x264 core 130 r2273 b3065e6
Настройки программы : cabac=1 / ref=5 / deblock=1:0:0 / analyse=0x3:0x133 / me=umh / subme=7 / psy=1 / psy_rd=1.00:0.00 / mixed_ref=1 / me_range=16 / chroma_me=1 / trellis=1 / 8x8dct=1 / cqm=0 / deadzone=21,11 / fast_pskip=0 / chroma_qp_offset=-2 / threads=12 / lookahead_threads=2 / sliced_threads=0 / nr=0 / decimate=1 / interlaced=0 / bluray_compat=0 / constrained_intra=0 / bframes=3 / b_pyramid=2 / b_adapt=1 / b_bias=0 / direct=1 / weightb=1 / open_gop=0 / weightp=2 / keyint=240 / keyint_min=24 / scenecut=40 / intra_refresh=0 / rc_lookahead=40 / rc=2pass / mbtree=1 / bitrate=9162 / ratetol=1.0 / qcomp=0.60 / qpmin=10 / qpmax=69 / qpstep=4 / cplxblur=20.0 / qblur=0.5 / ip_ratio=1.40 / aq=1:1.00
Язык : Danish
Default : Да
Forced : Нет
Аудио #1
Идентификатор : 2
Формат : MPEG Audio
Версия формата : Version 1
Профиль формата : Layer 3
Режим : Joint stereo
Расширение режима : MS Stereo
Идентификатор кодека : A_MPEG/L3
Идентификатор кодека/Подсказка : MP3
Продолжительность : 1 ч. 55 м.
Вид битрейта : Постоянный
Битрейт : 256 Кбит/сек
Каналы : 2 канала
Частота : 48,0 КГц
Метод сжатия : С потерями
Задержка видео : 10 с.
Размер потока : 211 Мбайт (2%)
Заголовок : Профессиональный многоголосый
Язык : Russian
Default : Да
Forced : Нет
Аудио #2
Идентификатор : 3
Формат : DTS
Формат/Информация : Digital Theater Systems
Идентификатор кодека : A_DTS
Продолжительность : 1 ч. 55 м.
Вид битрейта : Постоянный
Битрейт : 1510 Кбит/сек
Каналы : 6 каналов
Расположение каналов : Front: L C R, Side: L R, LFE
Частота : 48,0 КГц
Битовая глубина : 16 бит
Метод сжатия : С потерями
Размер потока : 1,22 Гбайт (14%)
Заголовок : DK-DTS 1510kbps
Язык : Danish
Default : Нет
Forced : Нет
Текст #1
Идентификатор : 4
Формат : UTF-8
Идентификатор кодека : S_TEXT/UTF8
Идентификатор кодека/Информация : UTF-8 Plain Text
Заголовок : FR Forced
Язык : French
Default : Нет
Forced : Нет
Текст #2
Идентификатор : 5
Формат : UTF-8
Идентификатор кодека : S_TEXT/UTF8
Идентификатор кодека/Информация : UTF-8 Plain Text
Заголовок : French
Язык : French
Default : Нет
Forced : Нет
-Скриншоты:




Время раздачи: с 10:00 до 23:00 ежедневно

[Цитировать]



Показать сообщения:    

Текущее время: 06-Дек 11:18

Часовой пояс: UTC + 3


Вы не можете начинать темы
Вы не можете отвечать на сообщения
Вы не можете редактировать свои сообщения
Вы не можете удалять свои сообщения
Вы не можете голосовать в опросах
Вы не можете прикреплять файлы к сообщениям
Вы не можете скачивать файлы

!ВНИМАНИЕ!
Сайт не предоставляет электронные версии произведений, а занимается лишь коллекционированием и каталогизацией ссылок, присылаемых и публикуемых на форуме нашими читателями. Если вы являетесь правообладателем какого-либо представленного материала и не желаете, чтобы ссылка на него находилась в нашем каталоге, свяжитесь с нами, и мы незамедлительно удалим ее. Файлы для обмена на трекере предоставлены пользователями сайта, и администрация не несет ответственности за их содержание. Просьба не заливать файлы, защищенные авторскими правами, а также файлы нелегального содержания!