[ Сегодня идет свободное скачивание без начисления Download ]


Статистика раздачи
Нет
 
   
 
 
 
-Залив / The Bay (2012) BDRip [1080p]- Русское название: Залив
Оригинальное название: The Bay
Год выпуска: 2012
Выпущено: США - Automatik Entertainment, Hydraulx
Жанр: Ужасы, Фантастика, Триллер
Перевод: Многоголосый закадровый - лицензия, R5
Язык субтитров: Русский, голландский
Вид субтитров: Вшитые
Описание фильма:
Беспрецедентная биологическая катастрофа постигает небольшой город на берегу залива: паразиты, обитающие в морских глубинах, заражают людей неизлечимой болезнью. Весь ужас произошедших событий жители города запечатлели на видео, которое выкладывали в интернет.
Режиссер: Барри Левинсон / Barry Levinson
Актеры: Кристен Коннолли, Джейн МакНейлл, Кристофер Денхам, Майкл Бисли, Кетер Донохью, Энтони Рейнольдс, Энди Стал, Джон Харингтон Блэнд, Лоурен Кон, Стэйси Рэбон- -Дата мировой премьеры: 13 сентября 2012
Дата выхода DVD релиза: 12 декабря 2012, «Кармен Видео», «ВС трейд»
Продолжительность: 01:21:07
Качество видео: BDRip 1080p
Видеокодек: MPEG-4 AVC/H.264
Размер кадра: H.264, 8136 Кбит/с, 1920x1016
Аудио #1: Русский: АС3, 5.1, 448 Кбит/с, 48 Khz, 16 bit - многоголосый закадровый
Аудио #2: Английский: DTS, 5.1, 1536 Кбит/с, 48 Khz, 24 bit

Сохранены оригинальные чаптеры как на Blu-Ray

Рецензия, отзыв о фильме

Зараженная бухта
Жизнь маленького городка, расположенного у Чезапикского залива, была мирной и ничто не предвещало беды. Но в один миг все превратилось в кошмар, виной которому оказался неизвестный и безжалостный вирус. Лишь пленки, случайно обнаруженные и обнародованные, раскрыли всю суть произошедшего.
Ныне жанр «мокьюментари», псевдодокументальных картин, особенно снятых в хоррор-стилистике, переживает небывалый ажиотаж. И именно к такой непривычной манере постановки в своем новом фильме «Бухта» решил обратиться знаменитый американский продюсер, режиссер и сценарист Барри Левинсон, более известный по лентам «Человек дождя», «Разоблачение» и «Спящие». «Бухта» — это рассказ о заражении одного города, буквально превратившегося в Ад на Земле, при том, что фильм обошелся без жанровых клише и в нем практически нет сверхьестественной природы вируса. Вина человека безаппеляционна и надо лишь вовремя одуматься, трезво утверждается в картине, снятой оператором Джошем Нуссбаумом в реалистичных и жутких тонах. Сцены же с уже зараженными людьми сильно пугают своей отталкивающей натуралистичностью, сильно играющей на нервах зрителей.
В ленте в главных ролях заняты малоизвестные актеры, играющие своих персонажей на вполне достойном уровне, отчего фильм приобретает еще большую правдоподобность.
Композитор Марчело Зарвос написал к фильму очень гнетущий и депрессивный саундтрек, идеально налаживающийся на репортажный видеоряд картины.
«Бухта» — очень необычный эксперимент режиссера Барри Левинсона, являющйися по-настоящему страшным хоррором, который я рекомендую к просмотру всем поклонникам фильмов ужасов, особенно снятых в псевдодокументальной манере, и, думаю, этот фильм Вас не разочарует.
8 из 10

MediaInfo

Общее
Уникальный идентификатор : 191220246432007326508113163212091010338 (0x8FDBAE0B26A8B999BCC269B99383AD22)
Полное имя : D:\Video:\The.Bay.2012.x264.BDRip.1080p.ac3.dts.Rus.Eng.mkv
Формат : Matroska
Версия формата : Version 2
Размер файла : 5,72 Гбайт
Продолжительность : 1 ч. 21 м.
Общий поток : 10,1 Мбит/сек
Дата кодирования : UTC 2013-03-10 21:57:44
Программа кодирования : mkvmerge v4.3.0 ('Escape from the Island') сборка от Sep 5 2010 10:30:51
Библиотека кодирования : libebml v1.0.0 + libmatroska v1.0.0
Видео
Идентификатор : 1
Формат : AVC
Формат/Информация : Advanced Video Codec
Профиль формата : High@L4.1
Параметр CABAC формата : Да
Параметр ReFrames формата : 4 кадра
Идентификатор кодека : V_MPEG4/ISO/AVC
Продолжительность : 1 ч. 21 м.
Битрейт : 8136 Кбит/сек
Ширина : 1920 пикселей
Высота : 1016 пикселей
Соотношение сторон : 1,890
Режим частоты кадров : Постоянный
Частота кадров : 25,000 кадров/сек
Цветовое пространство : YUV
Субдискретизация насыщенности : 4:2:0
Битовая глубина : 8 бит
Тип развёртки : Прогрессивная
Бит/(Пиксели*Кадры) : 0.167
Размер потока : 4,49 Гбайт (79%)
Библиотека кодирования : x264 core 130 r2273 b3065e6
Настройки программы : cabac=1 / ref=4 / deblock=1:0:0 / analyse=0x3:0x133 / me=umh / subme=7 / psy=1 / psy_rd=1.00:0.00 / mixed_ref=1 / me_range=16 / chroma_me=1 / trellis=1 / 8x8dct=1 / cqm=0 / deadzone=21,11 / fast_pskip=1 / chroma_qp_offset=-2 / threads=9 / lookahead_threads=1 / sliced_threads=0 / nr=0 / decimate=1 / interlaced=0 / bluray_compat=0 / constrained_intra=0 / bframes=3 / b_pyramid=2 / b_adapt=2 / b_bias=0 / direct=3 / weightb=1 / open_gop=0 / weightp=2 / keyint=250 / keyint_min=25 / scenecut=40 / intra_refresh=0 / rc=2pass / mbtree=0 / bitrate=8136 / ratetol=1.0 / qcomp=0.60 / qpmin=0 / qpmax=69 / qpstep=4 / cplxblur=20.0 / qblur=0.5 / ip_ratio=1.40 / pb_ratio=1.30 / aq=1:1.00
Язык : English
Default : Да
Forced : Нет
Аудио #1
Идентификатор : 2
Формат : AC-3
Формат/Информация : Audio Coding 3
Расширение режима : CM (complete main)
Параметр Endianness формата : Big
Идентификатор кодека : A_AC3
Продолжительность : 1 ч. 21 м.
Вид битрейта : Постоянный
Битрейт : 448 Кбит/сек
Каналы : 6 каналов
Расположение каналов : Front: L C R, Side: L R, LFE
Частота : 48,0 КГц
Битовая глубина : 16 бит
Метод сжатия : С потерями
Задержка видео : 7 мс.
Размер потока : 260 Мбайт (4%)
Язык : Russian
Default : Да
Forced : Нет
Аудио #2
Идентификатор : 3
Формат : DTS
Формат/Информация : Digital Theater Systems
Режим : 16
Параметр Endianness формата : Big
Идентификатор кодека : A_DTS
Продолжительность : 1 ч. 21 м.
Вид битрейта : Постоянный
Битрейт : 1509 Кбит/сек
Каналы : 6 каналов
Расположение каналов : Front: L C R, Side: L R, LFE
Частота : 48,0 КГц
Битовая глубина : 24 бит
Метод сжатия : С потерями
Задержка видео : 3 мс.
Размер потока : 876 Мбайт (15%)
Язык : English
Default : Нет
Forced : Нет
Текст #1
Идентификатор : 4
Формат : UTF-8
Идентификатор кодека : S_TEXT/UTF8
Идентификатор кодека/Информация : UTF-8 Plain Text
Язык : Russian
Default : Нет
Forced : Нет
Текст #2
Идентификатор : 5
Формат : UTF-8
Идентификатор кодека : S_TEXT/UTF8
Идентификатор кодека/Информация : UTF-8 Plain Text
Язык : Dutch
Default : Нет
Forced : Нет
Меню
00:00:00.000 : en:00:00:00.000
00:12:39.920 : en:00:12:39.920
00:26:18.840 : en:00:26:18.840
00:38:45.680 : en:00:38:45.680
00:52:57.360 : en:00:52:57.360
01:06:36.280 : en:01:06:36.280
01:20:41.400 : en:01:20:41.400
Скриншоты:

Время раздачи: с 10:00 до 20:00 (GMT+2) - до 5 скачавшихНе забываем говорить

[Цитировать]



Показать сообщения:    

Текущее время: 11-Дек 15:00

Часовой пояс: UTC + 3


Вы не можете начинать темы
Вы не можете отвечать на сообщения
Вы не можете редактировать свои сообщения
Вы не можете удалять свои сообщения
Вы не можете голосовать в опросах
Вы не можете прикреплять файлы к сообщениям
Вы не можете скачивать файлы

!ВНИМАНИЕ!
Сайт не предоставляет электронные версии произведений, а занимается лишь коллекционированием и каталогизацией ссылок, присылаемых и публикуемых на форуме нашими читателями. Если вы являетесь правообладателем какого-либо представленного материала и не желаете, чтобы ссылка на него находилась в нашем каталоге, свяжитесь с нами, и мы незамедлительно удалим ее. Файлы для обмена на трекере предоставлены пользователями сайта, и администрация не несет ответственности за их содержание. Просьба не заливать файлы, защищенные авторскими правами, а также файлы нелегального содержания!