[ Сегодня идет свободное скачивание без начисления Download ]


Статистика раздачи
Нет
 
   
 
Top  
 
 
Круиз / La croisiere Год выпуска: 2011
Страна: Франция
Производство: Fidelite Films, Wild Bunch, Mars Distribution
Жанр: комедия
Режиссер: Паскал Пузаду
В ролях: Шарлотт де Тюркейм, Лин Рено, Марилу Берри, Антуан Дюлери, Нора Арнезедер, Армель, Стефан Дебак, Жан Бенгиги, Камила Джепи, Николас Вод
Перевод: Профессиональный (многоголосый, закадровый) [НТВ+]
Субтитры: Отсутствуют
Описание: Четыре женщины отправляются в средиземноморский круиз своей мечты. Среди всякого рода веселья и праздничного безумия, уроков танго и загадочных новых встреч, большое путешествие раскроет перед ними новые горизонты, полные сюрпризов особенно по части дружбы и любви.
[kp]573890[/kp] [imdb]tt1793929[/imdb]
Качество: HDRip
Продолжительность: 01:36:27 час.
Формат: AVI
Видео кодек: XviD
Аудио кодек: MP3
Видео: 640x336 (4.2:0), 25.000 fps, XviD MPEG-4 ~873 kbps avg, 0.162 bit/pixel
Аудио: 48.0 kHz, MPEG Layer 3, 2 ch, ~128 kbps avg
Премьера (мир): 13 апреля 2011

Media Info

Общее
Полное имя                               : D:\Kruiz.2011.P.HDRip.700MB..avi
Формат                                   : AVI
Формат/Информация                        : Audio Video Interleave
Размер файла                             : 697 Мбайт
Продолжительность                        : 1 ч. 36 м.
Общий поток                              : 1010 Кбит/сек
Программа кодирования                    : VirtualDubMod 1.5.10.3 | www.virtualdub-fr.org || (build 2550/release)
Библиотека кодирования                   : VirtualDubMod build 2550/release
Видео
Идентификатор                            : 0
Формат                                   : MPEG-4 Visual
Профиль формата                          : Advanced Simple@L5
Параметр BVOP формата                    : 2
Параметр QPel формата                    : Нет
Параметр GMC формата                     : Без точки перехода
Параметр матрицы формата                 : Выборочная
Идентификатор кодека                     : XVID
Идентификатор кодека/Подсказка           : XviD
Продолжительность                        : 1 ч. 36 м.
Битрейт                                  : 873 Кбит/сек
Ширина                                   : 640 пикселей
Высота                                   : 336 пикселей
Соотношение сторон                       : 1,905
Частота кадров                           : 25,000 кадров/сек
Цветовое пространство                    : YUV
Субдискретизация насыщенности            : 4:2:0
Битовая глубина                          : 8 бит
Тип развёртки                            : Прогрессивная
Метод сжатия                             : С потерями
Бит/(Пиксели*Кадры)                      : 0.162
Размер потока                            : 602 Мбайт (86%)
Библиотека кодирования                   : XviD 1.2.1 (UTC 2008-12-04)
Аудио
Идентификатор                            : 1
Формат                                   : MPEG Audio
Версия формата                           : Version 1
Профиль формата                          : Layer 3
Идентификатор кодека                     : 55
Идентификатор кодека/Подсказка           : MP3
Продолжительность                        : 1 ч. 36 м.
Вид битрейта                             : Постоянный
Битрейт                                  : 128 Кбит/сек
Каналы                                   : 2 канала
Частота                                  : 48,0 КГц
Метод сжатия                             : С потерями
Размер потока                            : 88,3 Мбайт (13%)
Выравнивание                             : Соединение по промежуткам
Продолжительность промежутка             : 40  мс. (1,00 видеокадр)
Время предзагрузки промежутка            : 504  мс.
Библиотека кодирования                   : LAME3.98r
Настройки программы                      : -m s -V 4 -q 2 -lowpass 17 -b 128

Скриншоты



[Цитировать]



Показать сообщения:    

Текущее время: 07-Дек 23:19

Часовой пояс: UTC + 3


Вы не можете начинать темы
Вы не можете отвечать на сообщения
Вы не можете редактировать свои сообщения
Вы не можете удалять свои сообщения
Вы не можете голосовать в опросах
Вы не можете прикреплять файлы к сообщениям
Вы не можете скачивать файлы

!ВНИМАНИЕ!
Сайт не предоставляет электронные версии произведений, а занимается лишь коллекционированием и каталогизацией ссылок, присылаемых и публикуемых на форуме нашими читателями. Если вы являетесь правообладателем какого-либо представленного материала и не желаете, чтобы ссылка на него находилась в нашем каталоге, свяжитесь с нами, и мы незамедлительно удалим ее. Файлы для обмена на трекере предоставлены пользователями сайта, и администрация не несет ответственности за их содержание. Просьба не заливать файлы, защищенные авторскими правами, а также файлы нелегального содержания!