[ Сегодня идет свободное скачивание без начисления Download ]


Статистика раздачи
Нет
 
   
 
 
 
-Африка / Africa [2 серии из 6] (2013) BDRip [720p]-
Год выпуска: 2013
Производство: Великобритания
Студия: British Broadcasting Corporation (BBC)
Жанр: документальный
Перевод: Одноголосый закадровый [В. Курдов]
Субтитры: Русские, Английские
Режиссер: Катрина Бартлам, Фелисити Эгертон
Ведущий: Дэвид Аттенборо
Описание фильма:
Это новое представление ландшафтов и живых созданий дикой природы поведает в невиданном доселе ключе о горах и саваннах, вулканах и озерах, ледниках и джунглях Африки, населенных удивительными животными, пресмыкающимися, рыбами и насекомыми с необыкновенным поведением в естественной среде обитания, по-прежнему полной тайн и загадок...
-Продолжительность: 00:57:55 (серия)
Качество видео: BDRip
Видеокодек: MPEG-4 AVC/H.264
Аудиокодек: DTS
Видео: 1280x720 at 25.000 fps, ~5244 kb/s
Aудио #1: Русский: DTS, 5.1 ch, ~1509 Кбит/сек |Одноголосый закадровый, В.Курдов|
Aудио #2: Английский: DTS, 5.1 ch, ~1509 Кбит/сек

MediaInfo

Формат : Matroska
Версия формата : Version 2
Размер файла : 3,43 Гбайт
Продолжительность : 57 м.
Общий поток : 8488 Кбит/сек
Название фильма : Africa: Ep. 1 - Kalahari (2013)
Дата кодирования : UTC 2013-03-12 10:26:22
Программа кодирования : mkvmerge v4.0.0 ('The Stars were mine') сборка от Jun 6 2010 16:18:42
Библиотека кодирования : libebml v1.0.0 + libmatroska v1.0.0
Видео
Идентификатор : 1
Формат : AVC
Формат/Информация : Advanced Video Codec
Профиль формата : High@L4.1
Параметр CABAC формата : Да
Параметр ReFrames формата : 9 кадров
Идентификатор кодека : V_MPEG4/ISO/AVC
Продолжительность : 57 м.
Битрейт : 5244 Кбит/сек
Ширина : 1280 пикселей
Высота : 720 пикселей
Соотношение сторон : 16:9
Режим частоты кадров : Постоянный
Частота кадров : 25,000 кадров/сек
Цветовое пространство : YUV
Субдискретизация насыщенности : 4:2:0
Битовая глубина : 8 бит
Тип развёртки : Прогрессивная
Бит/(Пиксели*Кадры) : 0.228
Размер потока : 2,14 Гбайт (62%)
Заголовок : Africa: Ep. 1 - Kalahari (2013)
Библиотека кодирования : x264 core 129 r2245 bc13772
Настройки программы : cabac=1 / ref=9 / deblock=1:-3:-3 / analyse=0x3:0x133 / me=umh / subme=10 / psy=1 / psy_rd=1.00:0.00 / mixed_ref=1 / me_range=16 / chroma_me=1 / trellis=2 / 8x8dct=1 / cqm=0 / deadzone=21,11 / fast_pskip=1 / chroma_qp_offset=-2 / threads=6 / lookahead_threads=1 / sliced_threads=0 / nr=0 / decimate=1 / interlaced=0 / bluray_compat=0 / constrained_intra=0 / bframes=10 / b_pyramid=0 / b_adapt=2 / b_bias=0 / direct=3 / weightb=1 / open_gop=0 / weightp=2 / keyint=240 / keyint_min=23 / scenecut=40 / intra_refresh=0 / rc_lookahead=40 / rc=2pass / mbtree=1 / bitrate=5244 / ratetol=1.0 / qcomp=0.60 / qpmin=0 / qpmax=69 / qpstep=4 / cplxblur=20.0 / qblur=0.5 / ip_ratio=1.40 / aq=1:0.80
Язык : English
Default : Нет
Forced : Нет
Аудио #1
Идентификатор : 2
Формат : DTS
Формат/Информация : Digital Theater Systems
Режим : 16
Параметр Endianness формата : Big
Идентификатор кодека : A_DTS
Продолжительность : 57 м.
Вид битрейта : Постоянный
Битрейт : 1509 Кбит/сек
Каналы : 6 каналов
Расположение каналов : Front: L C R, Side: L R, LFE
Частота : 48,0 КГц
Битовая глубина : 24 бит
Метод сжатия : С потерями
Размер потока : 625 Мбайт (18%)
Заголовок : Russian DTS 5.1 - V.Kurdov
Язык : Russian
Default : Да
Forced : Нет
Аудио #2
Идентификатор : 3
Формат : DTS
Формат/Информация : Digital Theater Systems
Режим : 16
Параметр Endianness формата : Big
Идентификатор кодека : A_DTS
Продолжительность : 57 м.
Вид битрейта : Постоянный
Битрейт : 1509 Кбит/сек
Каналы : 6 каналов
Расположение каналов : Front: L C R, Side: L R, LFE
Частота : 48,0 КГц
Битовая глубина : 24 бит
Метод сжатия : С потерями
Размер потока : 625 Мбайт (18%)
Заголовок : English DTS 5.1 - D.Attenboro
Язык : English
Default : Нет
Forced : Нет
Текст #1
Идентификатор : 4
Формат : UTF-8
Идентификатор кодека : S_TEXT/UTF8
Идентификатор кодека/Информация : UTF-8 Plain Text
Заголовок : Russian Subtitles
Язык : Russian
Default : Нет
Forced : Нет
Текст #2
Идентификатор : 5
Формат : UTF-8
Идентификатор кодека : S_TEXT/UTF8
Идентификатор кодека/Информация : UTF-8 Plain Text
Заголовок : English Subtitles
Язык : English
Default : Нет
Forced : Нет
Меню
00:00:00.000 : en:00:00:00.000
00:14:03.680 : en:00:14:03.680
00:24:45.360 : en:00:24:45.360
00:34:31.800 : en:00:34:31.800
00:48:18.800 : en:00:48:18.800

Список серий:

1 Серия: Kalahari / Калахари
2 Серия: Savannah / Саванна

Цитата:

Перевод и озвучивание выполнены в рамках сервиса "Озвучивание". Спонсоры: tambov68, LibrarianA, gelom, jezburg68, Turko, Cheetah, DeTorquemada, RomanTar, Baron0580, habal_garmin, Studio, sergey324, Andrey2012, qwert54326.
Перевод Елены Акуловой, редактор Александр Кривцов.
За русскую аудиодорожку большое спасибо AndrewPlacid.
Сохранены оригинальные чаптеры как на Blu-ray.
Раздача ведется путем добавления серий по мере их появления.-Скриншоты:


Время раздачи: 24/7 Круглосуточно (До первых 10 скачавших)

[Цитировать]



Показать сообщения:    

Текущее время: 11-Дек 01:28

Часовой пояс: UTC + 3


Вы не можете начинать темы
Вы не можете отвечать на сообщения
Вы не можете редактировать свои сообщения
Вы не можете удалять свои сообщения
Вы не можете голосовать в опросах
Вы не можете прикреплять файлы к сообщениям
Вы не можете скачивать файлы

!ВНИМАНИЕ!
Сайт не предоставляет электронные версии произведений, а занимается лишь коллекционированием и каталогизацией ссылок, присылаемых и публикуемых на форуме нашими читателями. Если вы являетесь правообладателем какого-либо представленного материала и не желаете, чтобы ссылка на него находилась в нашем каталоге, свяжитесь с нами, и мы незамедлительно удалим ее. Файлы для обмена на трекере предоставлены пользователями сайта, и администрация не несет ответственности за их содержание. Просьба не заливать файлы, защищенные авторскими правами, а также файлы нелегального содержания!